• Este aviso va dirigido a todos los nuevos miembros recien llegados a Club-HD. Les recordamos que la direccion URL de este sitio web es , asi que deben acceder únicamente por esta URL. Sean todos bienvenidos al Club!

Prodigy (2019) 1080p BDRip HEVC Dual Audio Latino - Inglés [Subt. Esp] ( Posesiones. Exorcismos )

Klass

DARK
Uploader
Registrado
27 Sep 2015
Mensajes
751
Puntos de reacción
6,549
Puntos
93


Título original: The Prodigy
Latino: Maligno
Año: 2019
Duración: 92 min.
País:
Estados Unidos
Director: Nicholas McCarthy
Reparto: Taylor Schilling, Brittany Allen, Jackson Robert Scott, Colm Feore, Peter Mooney, Olunike Adeliyi, David Kohlsmith, Mark Sparks, Michael Dyson, Ava Augustin, Ashley Black, Byron Abalos
Productora: Coproducción Estados Unidos-Hong Kong; Orion Pictures / Vinson Films. Distribuida por Orion Pictures
Genero: Posesiones, Exorcismos

Sinopsis
Una madre preocupada por el comportamiento perturbador de su hijo, está convencida de que algo sobrenatural está transformando la vida del pequeño y de quienes lo rodean, poniéndolos en peligro.

5.9/10


















Código:
Format                                   : Matroska
Format version                           : Version 4
File size                                : 4.96 GiB
Duration                                 : 1 h 31 min
Overall bit rate                         : 7 734 kb/s
Movie name                               : Maligno . www.club-hd.com [KLASS]
Encoded date                             : UTC 2019-05-14 04:27:09
Writing application                      : mkvmerge v27.0.0 ('Metropolis') 64-bit
Writing library                          : libebml v1.3.6 + libmatroska v1.4.9
Uploader                                 : Klass
Web                                      : www.club-hd.com

Video
ID                                       : 1
Format                                   : HEVC
Format/Info                              : High Efficiency Video Coding
Format profile                           : Main 10@L4@High
Codec ID                                 : V_MPEGH/ISO/HEVC
Duration                                 : 1 h 31 min
Bit rate                                 : 6 829 kb/s
Width                                    : 1 920 pixels
Height                                   : 800 pixels
Display aspect ratio                     : 2.40:1
Frame rate mode                          : Constant
Frame rate                               : 23.976 (24000/1001) FPS
Color space                              : YUV
Chroma subsampling                       : 4:2:0
Bit depth                                : 10 bits
Bits/(Pixel*Frame)                       : 0.185
Stream size                              : 4.38 GiB (88%)
Language                                 : English
Default                                  : Yes
Forced                                   : No
Color range                              : Limited
Color primaries                          : BT.709
Transfer characteristics                 : BT.709
Matrix coefficients                      : BT.709

Audio #1
ID                                       : 2
Format                                   : AC-3
Format/Info                              : Audio Coding 3
Commercial name                          : Dolby Digital
Codec ID                                 : A_AC3
Duration                                 : 1 h 31 min
Bit rate mode                            : Constant
Bit rate                                 : 448 kb/s
Channel(s)                               : 6 channels
Channel layout                           : L R C LFE Ls Rs
Sampling rate                            : 48.0 kHz
Frame rate                               : 31.250 FPS (1536 SPF)
Bit depth                                : 16 bits
Compression mode                         : Lossy
Stream size                              : 294 MiB (6%)
Title                                    : Latino Bluray
Language                                 : Latin
Service kind                             : Complete Main
Default                                  : Yes
Forced                                   : No

Audio #2
ID                                       : 6
Format                                   : AC-3
Format/Info                              : Audio Coding 3
Commercial name                          : Dolby Digital
Codec ID                                 : A_AC3
Duration                                 : 1 h 31 min
Bit rate mode                            : Constant
Bit rate                                 : 448 kb/s
Channel(s)                               : 6 channels
Channel layout                           : L R C LFE Ls Rs
Sampling rate                            : 48.0 kHz
Frame rate                               : 31.250 FPS (1536 SPF)
Bit depth                                : 16 bits
Compression mode                         : Lossy
Stream size                              : 294 MiB (6%)
Title                                    : Inglés Bluray
Language                                 : English
Service kind                             : Complete Main
Default                                  : No
Forced                                   : No

Text #1
ID                                       : 3
Format                                   : PGS
Muxing mode                              : zlib
Codec ID                                 : S_HDMV/PGS
Codec ID/Info                            : Picture based subtitle format used on BDs/HD-DVDs
Duration                                 : 1 h 31 min
Bit rate                                 : 21.0 kb/s
Count of elements                        : 1802
Stream size                              : 13.7 MiB (0%)
Title                                    : Latino PGS
Language                                 : Latin
Default                                  : No
Forced                                   : No

Text #2
ID                                       : 4
Format                                   : UTF-8
Codec ID                                 : S_TEXT/UTF8
Codec ID/Info                            : UTF-8 Plain Text
Duration                                 : 7 min 56 s
Bit rate                                 : 1 b/s
Count of elements                        : 2
Stream size                              : 63.0 Bytes (0%)
Title                                    : Forzados SRT
Language                                 : Latin
Default                                  : Yes
Forced                                   : No

Text #3
ID                                       : 5
Format                                   : UTF-8
Codec ID                                 : S_TEXT/UTF8
Codec ID/Info                            : UTF-8 Plain Text
Duration                                 : 1 h 26 min
Bit rate                                 : 35 b/s
Count of elements                        : 899
Stream size                              : 22.6 KiB (0%)
Title                                    : Completos SRT
Language                                 : Latin
Default                                  : No
Forced                                   : No

Menu
00:00:00.000                             : :Chapter 01
00:04:05.703                             : :Chapter 02
00:09:53.384                             : :Chapter 03
00:12:55.441                             : :Chapter 04
00:18:32.528                             : :Chapter 05
00:24:20.625                             : :Chapter 06
00:28:53.773                             : :Chapter 07
00:33:59.912                             : :Chapter 08
00:38:33.936                             : :Chapter 09
00:42:10.027                             : :Chapter 10
00:46:54.895                             : :Chapter 11
00:50:15.429                             : :Chapter 12
00:56:20.919                             : :Chapter 13
01:01:39.278                             : :Chapter 14
01:05:14.910                             : :Chapter 15
01:09:53.522                             : :Chapter 16
01:13:42.501                             : :Chapter 17
01:21:23.670                             : :Chapter 18
01:25:20.907                             : :Chapter 19
01:26:46.367                             : :Chapter 20

Contraseña: [B][SIZE=6]www.club-hd.com[/SIZE][/B]



Enlaces de Mega y Google Drive solo disponibles para Miembros VIP

Compra tu Membresía VIP y apoya a Club-HD!

ATENCIÓN! Tenemos TODO el material de Club-HD disponible por Mega y Google Drive, enlaces 100% activos y online hasta la fecha

Llévate tus cuentas Mega PRO II gratis con tu membresía VIP!
Todos los posts vivos con links de Mega y Google Drive.
Todo el material de Club-HD desbloqueado y sin publicidad.

Click Aquí para más información.


Enlaces de Mega y Google Drive solo disponibles para Miembros VIP

Compra tu Membresía VIP y apoya a Club-HD!

ATENCIÓN! Tenemos TODO el material de Club-HD disponible por Mega y Google Drive, enlaces 100% activos y online hasta la fecha

Llévate tus cuentas Mega PRO II gratis con tu membresía VIP!
Todos los posts vivos con links de Mega y Google Drive.
Todo el material de Club-HD desbloqueado y sin publicidad.

Click Aquí para más información.


Para ver este contenido oculto, debes dar click en una de las siguientes reacciones: Like Like, Love Love, Haha Haha, Wow Wow, Sad Sad, Angry Angry


Para ver este contenido oculto, debes dar click en una de las siguientes reacciones: Like Like, Love Love, Haha Haha, Wow Wow, Sad Sad, Angry Angry
[/CENTER]
 
Última edición:

cripp

Well-known member
Registrado
27 Ago 2012
Mensajes
8,196
Puntos de reacción
495
Puntos
113
Gracias por compartir
 

Usuarios Que Están Viendo Este Tema (Total: 1, Miembros: 0, Invitados: 1)

Arriba