Queen Of The Damned (2002) 1080p BDRip Dual Latino-Inglés [Subt. Esp-Ing] (Terror. Fantástico)

Max

Admin
Miembro del Staff
Administrador
Registro
8 Ago 2012
Mensajes
5.770
Reacciones
24.078
Puntos
113
Ubicación
Disco C

Reputation:





TÍTULO ORIGINAL: Queen of the Damned
TÍTULO EN LATINO: La reina de los condenados
AÑO: 2002
DURACIÓN: 104 min.
PAÍS: Estados Unidos
DIRECTOR: Michael Rymer
GUIÓN: Scott Abbott & Michael Petroni (Novela: Anne Rice)
MÚSICA: Richard Gibbs & Jonathan Davis
FOTOGRAFÍA: Ian Baker
REPARTO: Stuart Townsend, Aaliyah, Marguerite Moreau, Vincent Pérez, Lena Olin, Paul McGann, Christian Manon, Claudia Black, Bruce Spence, Matthew Newton, Mark O'Halloran
PRODUCTORA: Warner Bros. Pictures / Village Roadshow Pictures / NPV Entertainment present a Material Production
GÉNERO: Terror. Fantástico | Vampiros. Secuela. Música

http://www.imdb.com/title/tt0238546/?ref_=fn_al_tt_1






Lestat, un vampiro legendario ha salido a luz luego de años de estar en penumbras. No contento con haber permanecido en las sombras durante un largo tiempo y moverse entre los mortales sin que ellos vieran lo que realmente es, Lestat ha decidido reinventarse a si mismo y ha elegido una de las figuras más populares en la tierra: una estrella de rock.















































Código:
General
Complete name                            : Queen Of The Damned (2002) 1080p BDRip Dual Latino-Inglés [Subt. Esp-Ing].mkv
Format                                   : Matroska
Format version                           : Version 2
File size                                : 9.95 GiB
Duration                                 : 1h 41mn
Overall bit rate                         : 14.0 Mbps
Movie name                               : www.club-hd.com --> Queen Of The Damned (2002) 1080p BDRip Dual Latino-Inglés [Subt. Esp-Ing]
Encoded date                             : UTC 2013-02-09 16:49:51
Writing application                      : mkvmerge v5.8.0 ('No Sleep / Pillow') built on Sep  2 2012 15:37:04
Writing library                          : libebml v1.2.3 + libmatroska v1.3.0

Video
ID                                       : 1
Format                                   : AVC
Format/Info                              : Advanced Video Codec
Format profile                           : High@L4.1
Format settings, CABAC                   : Yes
Format settings, ReFrames                : 4 frames
Codec ID                                 : V_MPEG4/ISO/AVC
Duration                                 : 1h 41mn
Bit rate                                 : 11.7 Mbps
Width                                    : 1 920 pixels
Height                                   : 800 pixels
Display aspect ratio                     : 2.40:1
Frame rate mode                          : Constant
Frame rate                               : 23.976 fps
Color space                              : YUV
Chroma subsampling                       : 4:2:0
Bit depth                                : 8 bits
Scan type                                : Progressive
Bits/(Pixel*Frame)                       : 0.318
Stream size                              : 8.09 GiB (81%)
Title                                    : www.club-hd.com --> Queen Of The Damned (2002) 1080p BDRip Dual Latino-Inglés [Subt. Esp-Ing]
Writing library                          : x264 core 125 r2208 d9d2288
Encoding settings                        : cabac=1 / ref=4 / deblock=1:-2:-2 / analyse=0x3:0x113 / me=umh / subme=10 / psy=1 / psy_rd=1.20:0.20 / mixed_ref=1 / me_range=32 / chroma_me=1 / trellis=2 / 8x8dct=1 / cqm=0 / deadzone=21,11 / fast_pskip=0 / chroma_qp_offset=-3 / threads=9 / lookahead_threads=1 / sliced_threads=0 / nr=0 / decimate=0 / interlaced=0 / bluray_compat=0 / constrained_intra=0 / bframes=5 / b_pyramid=2 / b_adapt=2 / b_bias=0 / direct=3 / weightb=1 / open_gop=0 / weightp=2 / keyint=240 / keyint_min=1 / scenecut=40 / intra_refresh=0 / rc_lookahead=72 / rc=2pass / mbtree=1 / bitrate=11695 / ratetol=1.0 / qcomp=0.60 / qpmin=10 / qpmax=51 / qpstep=4 / cplxblur=20.0 / qblur=0.5 / vbv_maxrate=38000 / vbv_bufsize=38000 / nal_hrd=none / ip_ratio=1.40 / aq=1:1.00
Language                                 : English
Default                                  : Yes
Forced                                   : No

Audio #1
ID                                       : 2
Format                                   : AC-3
Format/Info                              : Audio Coding 3
Format profile                           : Dolby Digital
Mode extension                           : CM (complete main)
Format settings, Endianness              : Big
Codec ID                                 : A_AC3
Duration                                 : 1h 41mn
Bit rate mode                            : Constant
Bit rate                                 : 192 Kbps
Channel(s)                               : 2 channels
Channel positions                        : Front: L R
Sampling rate                            : 48.0 KHz
Bit depth                                : 16 bits
Compression mode                         : Lossy
Stream size                              : 139 MiB (1%)
Title                                    : Queen Of The Damned (2002) - Español Latino AC3 2.0
Language                                 : Spanish
Default                                  : Yes
Forced                                   : No

Audio #2
ID                                       : 3
Format                                   : AC-3
Format/Info                              : Audio Coding 3
Mode extension                           : CM (complete main)
Format settings, Endianness              : Big
Codec ID                                 : A_AC3
Duration                                 : 1h 41mn
Bit rate mode                            : Constant
Bit rate                                 : 640 Kbps
Channel(s)                               : 6 channels
Channel positions                        : Front: L C R, Side: L R, LFE
Sampling rate                            : 48.0 KHz
Bit depth                                : 16 bits
Compression mode                         : Lossy
Stream size                              : 465 MiB (5%)
Title                                    : Queen Of The Damned (2002) - Inglés AC3 5.1
Language                                 : English
Default                                  : No
Forced                                   : No

Audio #3
ID                                       : 4
Format                                   : DTS
Format/Info                              : Digital Theater Systems
Mode                                     : 16
Format settings, Endianness              : Big
Codec ID                                 : A_DTS
Duration                                 : 1h 41mn
Bit rate mode                            : Constant
Bit rate                                 : 1 509 Kbps
Channel(s)                               : 6 channels
Channel positions                        : Front: L C R, Side: L R, LFE
Sampling rate                            : 48.0 KHz
Bit depth                                : 24 bits
Compression mode                         : Lossy
Stream size                              : 1.07 GiB (11%)
Title                                    : Queen Of The Damned (2002) - Inglés DTS 5.1
Language                                 : English
Default                                  : No
Forced                                   : No

Text #1
ID                                       : 5
Format                                   : UTF-8
Codec ID                                 : S_TEXT/UTF8
Codec ID/Info                            : UTF-8 Plain Text
Title                                    : Subtítulos Español
Language                                 : Spanish
Default                                  : No
Forced                                   : No

Text #2
ID                                       : 6
Format                                   : UTF-8
Codec ID                                 : S_TEXT/UTF8
Codec ID/Info                            : UTF-8 Plain Text
Title                                    : Subtítulos Inglés
Language                                 : English
Default                                  : No
Forced                                   : No










Enlaces de Mega y Fireload solo disponibles para Miembros VIP

Compra tu Membresía VIP y apoya a Club-HD!

ATENCIÓN! Tenemos TODO el material de Club-HD disponible por Mega y Fireload, enlaces 100% activos y online hasta la fecha

Llévate tus cuentas Mega PRO II gratis con tu membresía VIP!
Todos los posts vivos con links de Mega y Fireload.
Todo el material de Club-HD desbloqueado y sin publicidad.

Click Aquí para más información.




Enlaces de Mega y Fireload solo disponibles para Miembros VIP

Compra tu Membresía VIP y apoya a Club-HD!

ATENCIÓN! Tenemos TODO el material de Club-HD disponible por Mega y Fireload, enlaces 100% activos y online hasta la fecha

Llévate tus cuentas Mega PRO II gratis con tu membresía VIP!
Todos los posts vivos con links de Mega y Fireload.
Todo el material de Club-HD desbloqueado y sin publicidad.

Click Aquí para más información.



Para ver este contenido oculto, debes dar click en una de las siguientes reacciones : Like Like, Love Love, Haha Haha, Wow Wow, Sad Sad, Angry Angry

 
Última edición por un moderador:

arkkangeldark

Well-known member
Registro
27 Ago 2012
Mensajes
3.449
Reacciones
577
Puntos
113
Edad
34
Ubicación
Torreon Coahuila

Reputation:

excelente version max, ya habia bajado la 720p pero creo que tambien bajare esta version, gracias
 

Nosferatu

Well-known member
Súper Moderador
Registro
31 Ago 2012
Mensajes
2.275
Reacciones
1.362
Puntos
113
Edad
44
Ubicación
Welcome to Hell!!

Reputation:

A0rA0r MAX! Porque no pusiste esta versión primero? Ya descargue la m-720p, Pero no importa esta película es un Clásico para mi . la quiero en la mejor resolución posible 1080p 3 audios y el ultimo Dts, la quiero..... :aplausos::aplausos::aplausos:

La pago como sea, porque vale su peso en Oro.

Gracias Monstruo MAX! :aplausos::LXR::LXR::LXR:

PD: se paralizan las demás descargas, Desc_g_ pero ya.!!!!!!

PD2: esta le va a gustar mucho mas a Claudia.
 
Última edición:

juancholi

Active member
Registro
12 Sep 2012
Mensajes
541
Reacciones
27
Puntos
28
Ubicación
Chile

Reputation:

Gracias Max...ya habia bajado la de 720p pero vale la pena descargarla en 1080
 

sharklui

Well-known member
Miembro VIP
Registro
28 Ago 2012
Mensajes
1.026
Reacciones
271
Puntos
83
Ubicación
The Matrix

Reputation:

:aplausos:
Me encanta tener todos los aportes de 1080, y si tengo una en 720 la vuelvo a descargar para tenerla en 1080, gracias por el aporte !!!

Ademas me parece muy bien si en la descripcion continuan colocando como en este el titulo en español, ya que las traducciones literales son erradas el 98% de las veces l0l
Desc_g_
 

Usuarios Que Están Viendo Este Tema (Total: 1, Miembros: 0, Invitados: 1)

Arriba