Queen Of The Damned (2002) m-720p BDRip Dual Latino-Inglés [Subt. Esp-Ing] (Terror. Fantástico)

Max

Admin
Miembro del Staff
Administrador
Registro
8 Ago 2012
Mensajes
5.587
Reacciones
23.752
Puntos
113
Ubicación
Disco C

Reputation:





TÍTULO ORIGINAL: Queen of the Damned
TÍTULO EN LATINO: La reina de los condenados
AÑO: 2002
DURACIÓN: 104 min.
PAÍS: Estados Unidos
DIRECTOR: Michael Rymer
GUIÓN: Scott Abbott & Michael Petroni (Novela: Anne Rice)
MÚSICA: Richard Gibbs & Jonathan Davis
FOTOGRAFÍA: Ian Baker
REPARTO: Stuart Townsend, Aaliyah, Marguerite Moreau, Vincent Pérez, Lena Olin, Paul McGann, Christian Manon, Claudia Black, Bruce Spence, Matthew Newton, Mark O'Halloran
PRODUCTORA: Warner Bros. Pictures / Village Roadshow Pictures / NPV Entertainment present a Material Production
GÉNERO: Terror. Fantástico | Vampiros. Secuela. Música

http://www.imdb.com/title/tt0238546/?ref_=fn_al_tt_1






Lestat, un vampiro legendario ha salido a luz luego de años de estar en penumbras. No contento con haber permanecido en las sombras durante un largo tiempo y moverse entre los mortales sin que ellos vieran lo que realmente es, Lestat ha decidido reinventarse a si mismo y ha elegido una de las figuras más populares en la tierra: una estrella de rock.

































Código:
General
Complete name                            : Queen Of The Damned (2002) m-720p BDRip Dual Latino-Inglés [Subt. Esp-Ing].mkv
Format                                   : Matroska
Format version                           : Version 2
File size                                : 2.34 GiB
Duration                                 : 1h 41mn
Overall bit rate                         : 3 301 Kbps
Movie name                               : www.club-hd.com --> Queen Of The Damned (2002) m-720p BDRip Dual Latino-Inglés [Subt. Esp-Ing]
Encoded date                             : UTC 2013-02-06 01:43:05
Writing application                      : mkvmerge v5.8.0 ('No Sleep / Pillow') built on Sep  2 2012 15:37:04
Writing library                          : libebml v1.2.3 + libmatroska v1.3.0

Video
ID                                       : 1
Format                                   : AVC
Format/Info                              : Advanced Video Codec
Format profile                           : High@L4.1
Format settings, CABAC                   : Yes
Format settings, ReFrames                : 8 frames
Codec ID                                 : V_MPEG4/ISO/AVC
Duration                                 : 1h 41mn
Bit rate                                 : 2 660 Kbps
Width                                    : 1 280 pixels
Height                                   : 534 pixels
Display aspect ratio                     : 2.40:1
Original display aspect ratio            : 2.40:1
Frame rate mode                          : Constant
Frame rate                               : 23.976 fps
Color space                              : YUV
Chroma subsampling                       : 4:2:0
Bit depth                                : 8 bits
Scan type                                : Progressive
Bits/(Pixel*Frame)                       : 0.162
Stream size                              : 1.84 GiB (79%)
Title                                    : www.club-hd.com --> Queen Of The Damned (2002) m-720p BDRip Dual Latino-Inglés [Subt. Esp-Ing]
Writing library                          : x264 core 125 r2208 d9d2288
Encoding settings                        : cabac=1 / ref=9 / deblock=1:-3:-3 / analyse=0x3:0x113 / me=umh / subme=10 / psy=1 / psy_rd=1.00:0.00 / mixed_ref=1 / me_range=16 / chroma_me=1 / trellis=2 / 8x8dct=1 / cqm=0 / deadzone=21,11 / fast_pskip=1 / chroma_qp_offset=-2 / threads=12 / lookahead_threads=2 / sliced_threads=0 / nr=0 / decimate=1 / interlaced=0 / bluray_compat=0 / constrained_intra=0 / bframes=3 / b_pyramid=1 / b_adapt=1 / b_bias=0 / direct=1 / weightb=1 / open_gop=0 / weightp=2 / keyint=250 / keyint_min=23 / scenecut=40 / intra_refresh=0 / rc=2pass / mbtree=0 / bitrate=2660 / ratetol=1.0 / qcomp=0.60 / qpmin=0 / qpmax=69 / qpstep=4 / cplxblur=20.0 / qblur=0.5 / ip_ratio=1.40 / pb_ratio=1.30 / aq=1:0.80
Language                                 : English
Default                                  : Yes
Forced                                   : No

Audio #1
ID                                       : 2
Format                                   : AC-3
Format/Info                              : Audio Coding 3
Format profile                           : Dolby Digital
Mode extension                           : CM (complete main)
Format settings, Endianness              : Big
Codec ID                                 : A_AC3
Duration                                 : 1h 41mn
Bit rate mode                            : Constant
Bit rate                                 : 192 Kbps
Channel(s)                               : 2 channels
Channel positions                        : Front: L R
Sampling rate                            : 48.0 KHz
Bit depth                                : 16 bits
Compression mode                         : Lossy
Stream size                              : 139 MiB (6%)
Title                                    : Queen Of The Damned (2002) - Español Latino AC3 2.0
Language                                 : Spanish
Default                                  : Yes
Forced                                   : No

Audio #2
ID                                       : 3
Format                                   : AC-3
Format/Info                              : Audio Coding 3
Mode extension                           : CM (complete main)
Format settings, Endianness              : Big
Codec ID                                 : A_AC3
Duration                                 : 1h 41mn
Bit rate mode                            : Constant
Bit rate                                 : 448 Kbps
Channel(s)                               : 6 channels
Channel positions                        : Front: L C R, Side: L R, LFE
Sampling rate                            : 48.0 KHz
Bit depth                                : 16 bits
Compression mode                         : Lossy
Stream size                              : 325 MiB (14%)
Title                                    : Queen Of The Damned (2002) - Inglés AC3 5.1
Language                                 : English
Default                                  : No
Forced                                   : No

Text #1
ID                                       : 4
Format                                   : UTF-8
Codec ID                                 : S_TEXT/UTF8
Codec ID/Info                            : UTF-8 Plain Text
Title                                    : Subtítulos Español
Language                                 : Spanish
Default                                  : No
Forced                                   : No

Text #2
ID                                       : 5
Format                                   : UTF-8
Codec ID                                 : S_TEXT/UTF8
Codec ID/Info                            : UTF-8 Plain Text
Title                                    : Subtítulos Inglés
Language                                 : English
Default                                  : No
Forced                                   : No

Menu
00:00:00.000                             : en:Roused by New Gods
00:03:44.599                             : en:Lestat's Bold Move
00:06:48.158                             : en:Come Out, Come Out
00:09:28.276                             : en:Prey
00:12:29.165                             : en:Attracted
00:16:36.287                             : en:The Talamascans
00:20:09.583                             : en:Made by Marius
00:24:34.056                             : en:Unstrung on the Beach
00:29:09.039                             : en:Called by Akasha
00:34:09.089                             : en:Darkest Lesson
00:37:30.165                             : en:Admiral's Arms
00:40:49.197                             : en:Only Human
00:45:11.792                             : en:Old Friends in L.A.
00:51:03.269                             : en:Akasha's Carnage
00:55:10.474                             : en:Sharing With Jesse
00:59:45.290                             : en:Jesse Wants to Know
01:04:18.646                             : en:Faces in the Crowd
01:06:34.115                             : en:Center Stage
01:09:09.312                             : en:Battle of the Undead
01:12:02.026                             : en:World at His Feet
01:16:46.227                             : en:Our Family
01:19:18.003                             : en:Seeing the Light
01:21:48.278                             : en:Test of Love
01:26:18.757                             : en:Bloodletting
01:30:07.068                             : en:To Dust and to Sleep
01:32:45.143                             : en:David's Visitors
01:37:04.485                             : en:Dedication and End Credits










Enlaces de Mega y Fireload solo disponibles para Miembros VIP

Compra tu Membresía VIP y apoya a Club-HD!

ATENCIÓN! Tenemos TODO el material de Club-HD disponible por Mega y Fireload, enlaces 100% activos y online hasta la fecha

Llévate tus cuentas Mega PRO II gratis con tu membresía VIP!
Todos los posts vivos con links de Mega y Fireload.
Todo el material de Club-HD desbloqueado y sin publicidad.

Click Aquí para más información.




Enlaces de Mega y Fireload solo disponibles para Miembros VIP

Compra tu Membresía VIP y apoya a Club-HD!

ATENCIÓN! Tenemos TODO el material de Club-HD disponible por Mega y Fireload, enlaces 100% activos y online hasta la fecha

Llévate tus cuentas Mega PRO II gratis con tu membresía VIP!
Todos los posts vivos con links de Mega y Fireload.
Todo el material de Club-HD desbloqueado y sin publicidad.

Click Aquí para más información.



Para ver este contenido oculto, debes dar click en una de las siguientes reacciones : Like Like, Love Love, Haha Haha, Wow Wow, Sad Sad, Angry Angry
 
Última edición por un moderador:

Yonatan

Admin
Miembro del Staff
Administrador
Registro
27 Ago 2012
Mensajes
1.768
Reacciones
3.728
Puntos
113
Edad
28
Ubicación
Chile, Sexta Región

Reputation:

Gracias por este aporte Master Max xD

saludos y revisa tu mensajeria privada dash3dash3dash3
 

Pedrum

The Buckminster
Registro
28 Ago 2012
Mensajes
1.092
Reacciones
1.546
Puntos
113
Ubicación
Bahia Blanca

Reputation:

Pero que gran aporte Max, esta película es muy buena...te pasaste...va como siempre.. :dplgar:

Un abrazo! victory
 

Bankai

Active member
Uploader
Colaborador
Registro
28 Ago 2012
Mensajes
733
Reacciones
48
Puntos
28

Reputation:

gracias supre max exelente film bravo
 

captaincrow

Active member
Miembro VIP
Registro
28 Ago 2012
Mensajes
564
Reacciones
27
Puntos
28

Reputation:

WOW MAX GRACIAS GRACIAS Y GRACIAS ESTA PELICULA ES BUENISIMA un 10 para ti :dplgar: :aplausos:
 

zacygal

Well-known member
Registro
3 Sep 2012
Mensajes
1.515
Reacciones
1.536
Puntos
113
Edad
49

Reputation:

la vi por partes wien ahora la podre ver kompleta muchas gracias ...
 

Nosferatu

Well-known member
Súper Moderador
Registro
31 Ago 2012
Mensajes
2.275
Reacciones
1.362
Puntos
113
Edad
44
Ubicación
Welcome to Hell!!

Reputation:

LPM...shokshok:OHHH::OHHH::OHHH: Hoy que dentro me encuentro con esta gran sorpresa, este es super clásico de película para mi.:aplausos::aplausos::aplausos:

Gracias Master MAX! eres un monstruo.:aplausos::aplausos::LXR::LXR::LXR:
 

manuelomx

Active member
Registro
27 Ago 2012
Mensajes
2.422
Reacciones
20
Puntos
38

Reputation:

Desc_g_:dplgar:Tb_up3 muy buena pelicula gracias
 

Usuarios Que Están Viendo Este Tema (Total: 1, Miembros: 0, Invitados: 1)

Arriba