R.I.P.D. (2013) 1080p WEB-DL Dual Latino-Inglés [Subt. Esp] (Fantástico. Comedia)

Maestro Revolver

Well-known member
Miembro del Staff
Administrador
Registro
9 Ago 2012
Mensajes
3.567








TÍTULO ORIGINAL: R.I.P.D. (RIPD. Rest In Peace Department)
AÑO: 2013
DURACIÓN: 118 min.
PAÍS: USA
DIRECTOR: Robert Schwentke
GUIÓN: Phil Hay, Matt Manfredi (Cómic: Peter M. Lenkov)
REPARTO: Jeff Bridges, Ryan Reynolds, Kevin Bacon, Mary-Louise Parker, James Hong, Robert Knepper, Stephanie Szostak, Devin Ratray, Mike O'Malley, Marisa Miller
PRODUCTORA: Universal Pictures / Dark Horse Entertainment / Original Film / RSIG Security
GÉNERO: Fantástico. Comedia | Policíaco. Sobrenatural. Cómic
: http://www.imdb.com/title/tt0790736/






Nick Walker y Roy Pulsipher son dos policías especiales. Nick acaba de morir, pero es llamado para trabajar con Roy, un agente que murió hace cientos de años. Ambos forman parte del “Rest In Peace Department”, que se encarga de perseguir a los demonios que habitan en el mundo de los vivos y de mandarlos al infierno. A Nick le cuesta hacerse a la idea de su condición de muerto, y no acepta estar alejado de su esposa, a la que envía reiteradas señales para que perciba su presencia. Al menos, gracias a su empleo post mortem, el joven agente intentará averiguar la identidad de su asesino.
























La pelicula NO tiene ninguna marca... solo colocamos el nombre de esta web en las capturas






Código:
General
Format version                           : Version 2
File size                                : 3.31 GiB
Duration                                 : 1h 35mn
Overall bit rate                         : 4 941 Kbps
Movie name                               : www.club-hd.com
Encoded date                             : UTC 2013-10-09 22:41:23
Writing application                      : mkvmerge v5.7.0 ('The Whirlwind') built on Jul  8 2012 20:08:51
Writing library                          : libebml v1.2.3 + libmatroska v1.3.0

Video
ID                                       : 1
Format                                   : AVC
Format/Info                              : Advanced Video Codec
Format profile                           : High@L4.0
Format settings, CABAC                   : Yes
Format settings, ReFrames                : 5 frames
Codec ID                                 : V_MPEG4/ISO/AVC
Duration                                 : 1h 35mn
Bit rate                                 : 4 458 Kbps
Width                                    : 1 916 pixels
Height                                   : 812 pixels
Display aspect ratio                     : 2.35:1
Frame rate mode                          : Constant
Frame rate                               : 23.976 fps
Color space                              : YUV
Chroma subsampling                       : 4:2:0
Bit depth                                : 8 bits
Scan type                                : Progressive
Bits/(Pixel*Frame)                       : 0.120
Stream size                              : 2.99 GiB (90%)
Title                                    : www.club-hd.com
Language                                 : English
Default                                  : Yes
Forced                                   : No
Color primaries                          : BT.709
Transfer characteristics                 : BT.709
Matrix coefficients                      : BT.709

Audio #1
ID                                       : 2
Format                                   : AC-3
Format/Info                              : Audio Coding 3
Mode extension                           : CM (complete main)
Format settings, Endianness              : Big
Codec ID                                 : A_AC3
Duration                                 : 1h 35mn
Bit rate mode                            : Constant
Bit rate                                 : 192 Kbps
Channel(s)                               : 2 channels
Channel positions                        : Front: L R
Sampling rate                            : 48.0 KHz
Bit depth                                : 16 bits
Compression mode                         : Lossy
Stream size                              : 132 MiB (4%)
Title                                    : www.club-hd.com  >>  Latino
Language                                 : Spanish
Default                                  : Yes
Forced                                   : No

Audio #2
ID                                       : 3
Format                                   : AC-3
Format/Info                              : Audio Coding 3
Mode extension                           : CM (complete main)
Format settings, Endianness              : Big
Codec ID                                 : A_AC3
Duration                                 : 1h 35mn
Bit rate mode                            : Constant
Bit rate                                 : 192 Kbps
Channel(s)                               : 2 channels
Channel positions                        : Front: L R
Sampling rate                            : 48.0 KHz
Bit depth                                : 16 bits
Compression mode                         : Lossy
Stream size                              : 132 MiB (4%)
Title                                    : www.club-hd.com  >>  Inglés
Language                                 : English
Default                                  : No
Forced                                   : No

Text
ID                                       : 4
Format                                   : UTF-8
Codec ID                                 : S_TEXT/UTF8
Codec ID/Info                            : UTF-8 Plain Text
Language                                 : Spanish
Default                                  : No
Forced                                   : No

Menu
00:00:00.000                             : en:00:00:00.000
00:03:59.000                             : en:00:03:59,000
00:09:15.000                             : en:00:09:15,000
00:14:34.000                             : en:00:14:34,000
00:18:00.000                             : en:00:18:00,000
00:22:32.000                             : en:00:22:32,000
00:27:11.000                             : en:00:27:11,000
00:33:35.000                             : en:00:33:35,000
00:38:48.000                             : en:00:38:48,000
00:43:29.000                             : en:00:43:29,000
00:46:33.000                             : en:00:46:33,000
00:52:06.000                             : en:00:52:06,000
00:55:54.000                             : en:00:55:54,000
01:02:17.000                             : en:01:02:17,000
01:07:03.000                             : en:01:07:03,000
01:10:37.000                             : en:01:10:37,000
01:13:18.000                             : en:01:13:18,000
01:17:54.000                             : en:01:17:54,000
01:23:02.000                             : en:01:23:02,000
01:27:29.000                             : en:01:27:29,000 / en:01:27:29,000








Enlaces de Mega y Google Drive solo disponibles para Miembros VIP

Compra tu Membresía VIP y apoya a Club-HD!

ATENCIÓN! Tenemos TODO el material de Club-HD disponible por Mega y Google Drive, enlaces 100% activos y online hasta la fecha

Llévate tus cuentas Mega PRO III gratis con tu membresía VIP!
Todos los posts vivos con links de Mega y Google Drive.
Todo el material de Club-HD desbloqueado y sin publicidad.

Click Aquí para más información.



Para ver este contenido oculto, debes dar click en una de las siguientes reacciones : Like Like, Love Love, Haha Haha, Wow Wow, Sad Sad, Angry Angry
 
Última edición por un moderador:

Usuarios Que Están Viendo Este Tema (Total: 1, Miembros: 0, Invitados: 1)

Quién Leyó Este Tema (Total Miembros: 1)

Arriba