Raging Bull (1980) 720p Dual Latino-Inglés [Subt. Esp] (Drama)

Maestro Revolver

Well-known member
Miembro del Staff
Administrador
Registro
9 Ago 2012
Mensajes
3.569
Reacciones
59.350
Puntos
113

Reputation:


Aporte Recuperado gracias a nuestro amigo rockhdzv







TÍTULO ORIGINAL: Raging Bull
AÑO: 1980
DURACIÓN: 128 min.
PAÍS: USA
DIRECTOR: Martin Scorsese
GUIÓN: Paul Schrader & Mardik Martin
REPARTO: Robert De Niro, Cathy Moriarty, Joe Pesci, Frank Vincent, Nicholas Colasanto, Theresa Saldana, Mario Gallo, John Turturro, Frank Adonis, Martin Scorsese
PRODUCTORA: United Artists
GÉNERO: Drama | Biográfico. Deporte. Boxeo
: http://www.imdb.com/title/tt0081398/






Jake la Motta es un joven boxeador que se entrena duramente con la ayuda de su hermano y mánager Joey. Su sueño es convertirse en el campeón de los pesos medios. Pero Jake es un paranoico muy violento que descarga su agresividad tanto dentro como fuera del ring. Incluso su hermano es víctima de su enfermizo carácter. Cuando, por fin, alcanza el éxito, su vida se convierte en una pesadilla. Por un lado, su matrimonio marcha cada vez peor debido a sus contantes salidas nocturnas con otras mujeres; por otro, la mafia lo presiona para que amañe combates.
























La pelicula NO tiene ninguna marca... solo colocamos el nombre de esta web en las capturas






Código:
General
Format                                   : Matroska
Format version                           : Version 2
File size                                : 4.18 GiB
Duration                                 : 2h 9mn
Overall bit rate                         : 4 639 Kbps
Movie name                               : www.club-hd.com
Encoded date                             : UTC 2013-04-06 15:45:53
Writing application                      : mkvmerge v5.7.0 ('The Whirlwind') built on Jul  8 2012 20:08:51
Writing library                          : libebml v1.2.3 + libmatroska v1.3.0

Video
ID                                       : 1
Format                                   : AVC
Format/Info                              : Advanced Video Codec
Format profile                           : High@L4.1
Format settings, CABAC                   : Yes
Format settings, ReFrames                : 8 frames
Codec ID                                 : V_MPEG4/ISO/AVC
Duration                                 : 2h 9mn
Bit rate                                 : 4 000 Kbps
Width                                    : 1 280 pixels
Height                                   : 688 pixels
Display aspect ratio                     : 1.85:1
Frame rate mode                          : Constant
Frame rate                               : 23.976 fps
Color space                              : YUV
Chroma subsampling                       : 4:2:0
Bit depth                                : 8 bits
Scan type                                : Progressive
Bits/(Pixel*Frame)                       : 0.189
Stream size                              : 3.52 GiB (84%)
Title                                    : www.club-hd.com
Writing library                          : x264 core 120
Language                                 : English
Default                                  : Yes
Forced                                   : No
Color primaries                          : BT.709
Transfer characteristics                 : BT.709
Matrix coefficients                      : BT.709

Audio #1
ID                                       : 2
Format                                   : AC-3
Format/Info                              : Audio Coding 3
Mode extension                           : CM (complete main)
Format settings, Endianness              : Big
Codec ID                                 : A_AC3
Duration                                 : 2h 9mn
Bit rate mode                            : Constant
Bit rate                                 : 192 Kbps
Channel(s)                               : 2 channels
Channel positions                        : Front: L R
Sampling rate                            : 48.0 KHz
Bit depth                                : 16 bits
Compression mode                         : Lossy
Delay relative to video                  : 200ms
Stream size                              : 177 MiB (4%)
Title                                    : www.club-hd.com  >>  Latino
Language                                 : Spanish
Default                                  : Yes
Forced                                   : No

Audio #2
ID                                       : 3
Format                                   : AC-3
Format/Info                              : Audio Coding 3
Mode extension                           : CM (complete main)
Format settings, Endianness              : Big
Codec ID                                 : A_AC3
Duration                                 : 2h 9mn
Bit rate mode                            : Constant
Bit rate                                 : 448 Kbps
Channel(s)                               : 6 channels
Channel positions                        : Front: L C R, Side: L R, LFE
Sampling rate                            : 48.0 KHz
Bit depth                                : 16 bits
Compression mode                         : Lossy
Stream size                              : 414 MiB (10%)
Title                                    : www.club-hd.com  >>  Inglés
Language                                 : English
Default                                  : No
Forced                                   : No

Text
ID                                       : 4
Format                                   : UTF-8
Codec ID                                 : S_TEXT/UTF8
Codec ID/Info                            : UTF-8 Plain Text
Language                                 : Spanish
Default                                  : No
Forced                                   : No







Código:
www.club-hd.com[/CENTER]







Todos los links son Intercambiables!




Enlaces de Mega y Fireload solo disponibles para Miembros VIP

Compra tu Membresía VIP y apoya a Club-HD!

ATENCIÓN! Tenemos TODO el material de Club-HD disponible por Mega y Fireload, enlaces 100% activos y online hasta la fecha

Llévate tus cuentas Mega PRO II gratis con tu membresía VIP!
Todos los posts vivos con links de Mega y Fireload.
Todo el material de Club-HD desbloqueado y sin publicidad.

Click Aquí para más información.



Para ver este contenido oculto, debes dar click en una de las siguientes reacciones : Like Like, Love Love, Haha Haha, Wow Wow, Sad Sad, Angry Angry

 
Última edición por un moderador:

sharklui

Well-known member
Miembro VIP
Registro
28 Ago 2012
Mensajes
1.026
Reacciones
271
Puntos
83
Ubicación
The Matrix

Reputation:

:aplausos:

Increible, Robert De Niro hace 33 años :OHHH: y aun con el talento que lo caracteriza.

Muchas gracias Revol, aunque esta peli nunca la vi nunca es tarde y gracias a ti es posible recordar, conocer y coleccionar todo lo imaginable del cine :aplausos:

Exitos y Bendiciones !!!

:LXR:
 

Omar Herrera

Well-known member
Miembro del Staff
Súper Moderador
Registro
27 Ago 2012
Mensajes
1.234
Reacciones
325
Puntos
83
Edad
32
Ubicación
Managua

Reputation:

Perfecto! me la llevo
Desc_g_
Gracias Revolver, como siempre eres el mejor, y haber traido esta pelicula al club demuestra que nada te detiene. Gracias!! Pl4yb0y
 

Pedrum

The Buckminster
Registro
28 Ago 2012
Mensajes
1.092
Reacciones
1.546
Puntos
113
Ubicación
Bahia Blanca

Reputation:

Que buena pelicula que subiste Revo...te pasaste fiera, muchisimas gracias! Pelicula recomendada para quienes no la vieron..

Saludos! victory
 

josepr_841

New member
Registro
27 Ago 2012
Mensajes
1.285
Reacciones
57
Puntos
0
Ubicación
Cordoba

Reputation:

Gracias!!!

Estan subiendo mucho de Deniro, por favor Taxi driver y The deer hunter!!!!!!


saludos y nuevamente gracias!!
 

Mate78

Ladron de mi cerebro
Miembro del Staff
Súper Moderador
Registro
27 Ago 2012
Mensajes
1.235
Reacciones
918
Puntos
113

Reputation:

Tu Eres un Verdadero Maestro , Gracias Señor Revolver21 !!!!Tb_up3LXR_2LXR_2
 

edward1080

Well-known member
Registro
23 Nov 2012
Mensajes
1.013
Reacciones
137
Puntos
63
Edad
34

Reputation:

Increíble pelicula, todo un clasico con el gran Robert De Niro, Me quedo con esta version en 720p, Gracias master Revolver!! :dplgar:
 

Usuarios Que Están Viendo Este Tema (Total: 1, Miembros: 0, Invitados: 1)

Arriba