Ratatouille (2007) 720p BDRip Dual Latino-Inglés [Subt. Esp] (Animación)

Maestro Revolver

Well-known member
Miembro del Staff
Administrador
Registro
9 Ago 2012
Mensajes
3.567








TÍTULO ORIGINAL: Ratatouille
AÑO: 2007
DURACIÓN: 110 min.
PAÍS: USA
DIRECTOR: Brad Bird
GUIÓN: Brad Bird (Historia: Jan Pinkava, Jim Capobianco, Brad Bird)
REPARTO: Animation
PRODUCTORA: Pixar Animation Studios / Walt Disney Pictures
GÉNERO: Animación. Comedia. Infantil | Cocina. Roedores. Cine familiar
: http://www.imdb.com/title/tt0382932/


Premios:
2007: Oscar: Mejor largometraje de animación. 5 nominaciones
2007: Globo de Oro: Mejor filme de animación
2007: Premios BAFTA: Mejor largometraje de animación
2007: Premios Annie: 9 premios, incluyendo Mejor película. 13 nominaciones
2007: National Board of Review: Mejor largometraje de animación
2007: Festival de Toronto: Mejor Mejor largometraje de animación
2007: Asociación de Críticos de Los Angeles: Mejor largometraje de animación
2007: American Film Institute (AFI): Top 10 - Mejores películas del año
2007: Critics' Choice Awards: Mejor largometraje de animación






Remy es una simpática rata que sueña con convertirse en un gran chef francés a pesar de la oposición de su familia y del problema evidente que supone ser una rata en una profesión que detesta a los roedores. El destino lleva a Remy a las alcantarillas de París, donde su situación no puede ser mejor, ya que se encuentra justo debajo de un restaurante que se ha hecho famoso gracias a Auguste Gusteau, una estrella de la nouvelle cuisine. A pesar del peligro que representa ser un visitante poco común (y desde luego nada deseado) en los fogones de un exquisito restaurante francés, la pasión de Remy por la cocina pone patas arriba el mundo culinario parisino en una trepidante y emocionante aventura.
























La pelicula NO tiene ninguna marca... solo colocamos el nombre de esta web en las capturas






Código:
General
Complete name                            : [B]Ratatouille (2007) 720p BDRip Dual Latino-Inglés [Subt. Esp][/B].mkv
Format                                   : Matroska
Format version                           : Version 4 / Version 2
File size                                : 4.47 GiB
Duration                                 : 1h 50mn
Overall bit rate                         : 5 782 Kbps
Movie name                               : www.club-hd.com -> Ratatouille (2007) 720p BDRip Dual Latino-Inglés [Subt. Esp]
Encoded date                             : UTC 2016-05-05 22:36:16
Writing application                      : mkvmerge v7.1.0 ('Good Love') 64bit built on Jul 27 2014 13:06:55
Writing library                          : libebml v1.3.0 + libmatroska v1.4.1

Video
ID                                       : 1
Format                                   : AVC
Format/Info                              : Advanced Video Codec
Format profile                           : High@L4.1
Format settings, CABAC                   : Yes
Format settings, ReFrames                : 5 frames
Codec ID                                 : V_MPEG4/ISO/AVC
Duration                                 : 1h 50mn
Bit rate                                 : 4 500 Kbps
Width                                    : 1 280 pixels
Height                                   : 534 pixels
Display aspect ratio                     : 2.40:1
Frame rate mode                          : Constant
Frame rate                               : 23.976 fps
Color space                              : YUV
Chroma subsampling                       : 4:2:0
Bit depth                                : 8 bits
Scan type                                : Progressive
Bits/(Pixel*Frame)                       : 0.275
Stream size                              : 3.39 GiB (76%)
Title                                    : Ratatouille (2007) 720p BDRip Dual Latino-Inglés [Subt. Esp]
Writing library                          : x264 core 148 r2638 7599210
Language                                 : English
Default                                  : Yes
Forced                                   : No
Color primaries                          : BT.709
Transfer characteristics                 : BT.709
Matrix coefficients                      : BT.709

Audio #1
ID                                       : 2
Format                                   : AC-3
Format/Info                              : Audio Coding 3
Mode extension                           : CM (complete main)
Format settings, Endianness              : Big
Codec ID                                 : A_AC3
Duration                                 : 1h 50mn
Bit rate mode                            : Constant
Bit rate                                 : 640 Kbps
Channel(s)                               : 6 channels
Channel positions                        : Front: L C R, Side: L R, LFE
Sampling rate                            : 48.0 KHz
Bit depth                                : 16 bits
Compression mode                         : Lossy
Stream size                              : 506 MiB (11%)
Title                                    : [B]Ratatouille (2007) - Español Latino AC3 5.1 - 640 Kbps (Blu-ray)[/B]
Language                                 : Spanish
Default                                  : Yes
Forced                                   : No

Audio #2
ID                                       : 3
Format                                   : AC-3
Format/Info                              : Audio Coding 3
Mode extension                           : CM (complete main)
Format settings, Endianness              : Big
Codec ID                                 : A_AC3
Duration                                 : 1h 50mn
Bit rate mode                            : Constant
Bit rate                                 : 640 Kbps
Channel(s)                               : 6 channels
Channel positions                        : Front: L C R, Side: L R, LFE
Sampling rate                            : 48.0 KHz
Bit depth                                : 16 bits
Compression mode                         : Lossy
Stream size                              : 506 MiB (11%)
Title                                    : Ratatouille (2007) - Inglés AC3 5.1 - 640 Kbps
Language                                 : English
Default                                  : No
Forced                                   : No

Text
ID                                       : 4
Format                                   : UTF-8
Codec ID                                 : S_TEXT/UTF8
Codec ID/Info                            : UTF-8 Plain Text
Title                                    : [B]Ratatouille (2007) - Subtítulos Español[/B]
Language                                 : Spanish
Default                                  : No
Forced                                   : No

Menu
00:00:00.000                             : en:World's Best
00:01:16.201                             : en:This is Me
00:06:29.430                             : en:Taste This
00:09:22.895                             : en:Caught
00:10:58.074                             : en:Exodus
00:13:30.976                             : en:Wall Rat
00:17:40.017                             : en:Le Cooks
00:19:37.551                             : en:Big Break
00:24:48.320                             : en:Discovered
00:28:55.233                             : en:The Pact
00:33:05.066                             : en:First Day
00:38:13.416                             : en:Test Drive
00:40:33.139                             : en:Accidental Success
00:44:11.231                             : en:Cooking With Colette
00:46:59.316                             : en:Something New
00:51:27.667                             : en:Old and New Friends
00:57:02.168                             : en:Homecoming
00:59:32.318                             : en:Exterminator
01:00:53.524                             : en:Kiss & Vinegar
01:07:19.744                             : en:Losing Control
01:11:25.656                             : en:Paper Chase
01:15:28.232                             : en:Up & Down
01:19:25.093                             : en:Heist to See You
01:23:30.130                             : en:Big Night(mare)
01:25:34.462                             : en:Ego Orders
01:28:18.334                             : en:Truth Hurts
01:32:39.011                             : en:Dinner Rush
01:35:41.444                             : en:Best Shot
01:38:49.715                             : en:The Review
01:40:54.673                             : en:La Ratatouille
01:42:58.964                             : en:End Creditouilles







Código:
www.club-hd.com[/CENTER]







Todos los links son Intercambiables!




Enlaces de Mega y Google Drive solo disponibles para Miembros VIP

Compra tu Membresía VIP y apoya a Club-HD!

ATENCIÓN! Tenemos TODO el material de Club-HD disponible por Mega y Google Drive, enlaces 100% activos y online hasta la fecha

Llévate tus cuentas Mega PRO III gratis con tu membresía VIP!
Todos los posts vivos con links de Mega y Google Drive.
Todo el material de Club-HD desbloqueado y sin publicidad.

Click Aquí para más información.


Para ver este contenido oculto, debes dar click en una de las siguientes reacciones : Like Like, Love Love, Haha Haha, Wow Wow, Sad Sad, Angry Angry

 
Última edición por un moderador:

Usuarios Que Están Viendo Este Tema (Total: 1, Miembros: 0, Invitados: 1)

Quién Leyó Este Tema (Total Miembros: 5)

Arriba