Ray (2004) 720p Dual Latino-Ingles [Subt.Esp] (Drama)

Maestro Revolver

Well-known member
Miembro del Staff
Administrador
Registro
9 Ago 2012
Mensajes
3.569
Reacciones
59.471
Puntos
113

Reputation:

Aporte Recuperado gracias a nuestro amigo clasaase







TÍTULO ORIGINAL: Ray
AÑO: 2004
DURACIÓN: 152 min.
PAÍS: USA
DIRECTOR: Taylor Hackford
GUIÓN: James L. White (Historia: James L. White & Taylor Hackford)
REPARTO: Jamie Foxx, Kerry Washington, Regina King, Clifton Powell, Harry Lennix, Terrence Howard, Larenz Tate, Richard Schiff, David Krumholtz, Curtis Armstrong, Bokeem Woodbine
PRODUCTORA: Universal Pictures
GÉNERO: Drama. Musical | Biográfico. Discapacidad

PREMIOS: 2004: 2 Oscar: Mejor actor (Jamie Foxx), sonido. 6 nominaciones
2004: Globos de Oro: Mejor actor musical o comedia (Jamie Foxx). 2 nominaciones
2004: BAFTA: Mejor actor, sonido. 4 nominaciones
2004: National Board of Review: Mejor actor
2004: Nominada al David de Donatello: Mejor película extranjera





La vida de Ray Charles es una alternancia de triunfos y fracasos personales que se suceden a lo largo de una dilatada y galardonada carrera en el mundo del espectáculo. Pero estamos hablando de un hombre que sintetizó sus luchas, su dolor y su oscuridad personal con la misma efectividad con la que supo fundir en su arte una miríada de estilos musicales: el jazz, el rhythm & blues, el rock & roll, el gospel y el country. Su historia tiene entonces un sentido muy distinto: la cadena de logros se transforma en el vibrante y conmovedor trayecto de un genio único con una visión propia que enseñó al mundo a escuchar música de una forma nueva. RAY es la biografía, nunca contada antes, de esa leyenda de la música americana que es Ray Charles. Se centra en el período más explosivo de la carrera de Charles, que comienza cuando este joven negro ciego se sube solo a un autobús en Florida y cruza el país para refinar su arte en la floreciente escena jazzística de Seattle. Ray lucha por ser tratado de forma justa, es descubierto por Atlantic Records y comienza su imparable ascenso hacia la fama global, enredado en su problema de adicción a la droga y en sus tórridos líos amorosos. Pero el trayecto de Ray no avanza sólo hacia el futuro sino que retorna también a su infancia: mientras se convierte en el gran héroe musical de su generación, Ray debe asimilar ese conflictivo momento de su vida cuando su hermano George muere y él empieza a perder la vista a los cinco años de edad; un momento que ejerce una influencia indeleble en sus emociones, su motivación y su música inmortal.





















Código:
General
Complete name                            : Ray (2004) 720p Dual Latino-Ingles [Subt.Esp].mkv
Format                                   : Matroska
Format version                           : Version 4
File size                                : 4.96 GiB
Duration                                 : 2 h 32 min
Overall bit rate                         : 4 657 kb/s
Movie name                               : Ray (2004) 720p Dual
Encoded date                             : UTC 2020-07-07 04:04:24
Writing application                      : mkvmerge v33.0.0 ('A Little Bit of Madness') 64-bit
Writing library                          : libebml v1.3.7 + libmatroska v1.5.0

Video
ID                                       : 1
Format                                   : AVC
Format/Info                              : Advanced Video Codec
Format profile                           : High@L4.1
Format settings                          : CABAC / 4 Ref Frames
Format settings, CABAC                   : Yes
Format settings, Reference frames        : 4 frames
Codec ID                                 : V_MPEG4/ISO/AVC
Duration                                 : 2 h 32 min
Bit rate                                 : 3 375 kb/s
Width                                    : 1 280 pixels
Height                                   : 720 pixels
Display aspect ratio                     : 16:9
Frame rate mode                          : Constant
Frame rate                               : 23.976 (24000/1001) FPS
Color space                              : YUV
Chroma subsampling                       : 4:2:0
Bit depth                                : 8 bits
Scan type                                : Progressive
Bits/(Pixel*Frame)                       : 0.153
Stream size                              : 3.59 GiB (72%)
Title                                    : Ray (2004) 720p Dual
Writing library                          : x264 core 112
Encoding settings                        : cabac=1 / ref=3 / deblock=1:0:0 / analyse=0x3:0x113 / me=hex / subme=6 / psy=1 / psy_rd=1.00:0.00 / mixed_ref=0 / me_range=16 / chroma_me=1 / trellis=0 / 8x8dct=1 / cqm=0 / deadzone=21,11 / fast_pskip=1 / chroma_qp_offset=-2 / threads=12 / sliced_threads=0 / nr=0 / decimate=1 / interlaced=0 / constrained_intra=0 / bframes=3 / b_pyramid=2 / b_adapt=1 / b_bias=0 / direct=1 / weightb=0 / open_gop=0 / weightp=2 / keyint=240 / keyint_min=23 / scenecut=40 / intra_refresh=0 / rc_lookahead=40 / rc=crf / mbtree=1 / crf=19.3 / qcomp=0.60 / qpmin=3 / qpmax=51 / qpstep=4 / ip_ratio=1.40 / aq=1:1.00
Language                                 : English
Default                                  : Yes
Forced                                   : No
Color range                              : Limited
Color primaries                          : BT.709
Transfer characteristics                 : BT.709
Matrix coefficients                      : BT.709

Audio #1
ID                                       : 2
Format                                   : AC-3
Format/Info                              : Audio Coding 3
Commercial name                          : Dolby Digital
Codec ID                                 : A_AC3
Duration                                 : 2 h 32 min
Bit rate mode                            : Constant
Bit rate                                 : 640 kb/s
Channel(s)                               : 6 channels
Channel layout                           : L R C LFE Ls Rs
Sampling rate                            : 48.0 kHz
Frame rate                               : 31.250 FPS (1536 SPF)
Compression mode                         : Lossy
Stream size                              : 697 MiB (14%)
Title                                    : Latino AC3 5.1
Language                                 : English
Service kind                             : Complete Main
Default                                  : Yes
Forced                                   : No

Audio #2
ID                                       : 3
Format                                   : AC-3
Format/Info                              : Audio Coding 3
Commercial name                          : Dolby Digital
Codec ID                                 : A_AC3
Duration                                 : 2 h 32 min
Bit rate mode                            : Constant
Bit rate                                 : 640 kb/s
Channel(s)                               : 6 channels
Channel layout                           : L R C LFE Ls Rs
Sampling rate                            : 48.0 kHz
Frame rate                               : 31.250 FPS (1536 SPF)
Compression mode                         : Lossy
Stream size                              : 698 MiB (14%)
Title                                    : Inglés AC3 5.1
Language                                 : English
Service kind                             : Complete Main
Default                                  : No
Forced                                   : No

Text #1
ID                                       : 4
Format                                   : UTF-8
Codec ID                                 : S_TEXT/UTF8
Codec ID/Info                            : UTF-8 Plain Text
Duration                                 : 2 h 28 min
Bit rate                                 : 15 b/s
Count of elements                        : 497
Stream size                              : 16.7 KiB (0%)
Title                                    : Forzado & Canciones
Language                                 : Spanish
Default                                  : Yes
Forced                                   : Yes

Text #2
ID                                       : 5
Format                                   : UTF-8
Codec ID                                 : S_TEXT/UTF8
Codec ID/Info                            : UTF-8 Plain Text
Duration                                 : 2 h 23 min
Bit rate                                 : 1 b/s
Count of elements                        : 51
Stream size                              : 1.51 KiB (0%)
Title                                    : Solo Forzado
Language                                 : Spanish
Default                                  : No
Forced                                   : No

Text #3
ID                                       : 6
Format                                   : UTF-8
Codec ID                                 : S_TEXT/UTF8
Codec ID/Info                            : UTF-8 Plain Text
Duration                                 : 2 h 20 min
Bit rate                                 : 15 b/s
Count of elements                        : 452
Stream size                              : 15.5 KiB (0%)
Title                                    : Solo Canciones
Language                                 : Spanish
Default                                  : No
Forced                                   : No

Text #4
ID                                       : 7
Format                                   : UTF-8
Codec ID                                 : S_TEXT/UTF8
Codec ID/Info                            : UTF-8 Plain Text
Duration                                 : 2 h 23 min
Bit rate                                 : 61 b/s
Count of elements                        : 2187
Stream size                              : 64.6 KiB (0%)
Title                                    : Latino
Language                                 : Spanish
Default                                  : No
Forced                                   : No

Menu
00:00:00.000                             : en:Main Titles / Seattle Bound
00:06:27.553                             : en:Talent Night
00:11:53.170                             : en:Golden Goose
00:19:30.419                             : en:To The Piano Born
00:23:09.096                             : en:The Chitlin' Circuit
00:28:05.016                             : en:Unnatural Death
00:34:42.246                             : en:No Tears
00:40:04.485                             : en:Messing Around
00:45:59.631                             : en:Hummingbird
00:55:26.781                             : en:The New Ray Charles
00:59:41.035                             : en:Devil Music
01:04:41.836                             : en:On The Road
01:07:44.226                             : en:Double Life
01:14:37.514                             : en:Cat Fight
01:22:09.257                             : en:Junkie
01:26:01.030                             : en:Improvising
01:32:17.573                             : en:Disharmony
01:37:25.756                             : en:Moving On
01:41:18.405                             : en:M.O.R.
01:44:58.792                             : en:Breaking the Rules
01:51:04.783                             : en:Battling Jim Crow
01:55:00.310                             : en:Busted
01:59:18.276                             : en:Going Country
02:05:51.168                             : en:State of the Art
02:09:09.074                             : en:Broken Hearts
02:13:41.680                             : en:Border Crossing
02:17:42.671                             : en:Rehab
02:21:38.072                             : en:Salvation / End Titles



LEER IMPORTANTE
Esta pelicula es especial para ciegos, por eso el audio Ingles esta narrado por un locutor toda la pelicula y puede ser molesto para algunos, los subtitulos solo traducen las voces de los actores , no asi la del narrador .



Subtítulos Latinos, Forzados, Forzados con canciones en inglés, solo canciones en inglés por Clasaase aquí




Un agradecimiento muy especial para nuestro amigo clasaase, por mejorar los audios a AC3 5.1 y agregar más subtítulos especiales en Español. 👏










Todos los links son Intercambiables!


Enlaces de Mega y Fireload solo disponibles para Miembros VIP

Compra tu Membresía VIP y apoya a Club-HD!

ATENCIÓN! Tenemos TODO el material de Club-HD disponible por Mega y Fireload, enlaces 100% activos y online hasta la fecha

Llévate tus cuentas Mega PRO II gratis con tu membresía VIP!
Todos los posts vivos con links de Mega y Fireload.
Todo el material de Club-HD desbloqueado y sin publicidad.

Click Aquí para más información.


Para ver este contenido oculto, debes dar click en una de las siguientes reacciones : Like Like, Love Love, Haha Haha, Wow Wow, Sad Sad, Angry Angry


Para ver este contenido oculto, debes dar click en una de las siguientes reacciones : Like Like, Love Love, Haha Haha, Wow Wow, Sad Sad, Angry Angry


Para ver este contenido oculto, debes dar click en una de las siguientes reacciones : Like Like, Love Love, Haha Haha, Wow Wow, Sad Sad, Angry Angry
 
Última edición por un moderador:

AHG

Member
Registro
28 Ago 2012
Mensajes
192
Reacciones
11
Puntos
18

Reputation:

Gracias por la película, cuenta una historia muy interesante.
 

takaya

Member
Registro
27 Ago 2012
Mensajes
192
Reacciones
9
Puntos
18
Edad
48

Reputation:

peliculon amigo..se agradece!
 

battrock

New member
Registro
27 Ago 2012
Mensajes
110
Reacciones
13
Puntos
0

Reputation:

grande Ray Charles, buena película y gran actuación de Foxx
 

Usuarios Que Están Viendo Este Tema (Total: 1, Miembros: 0, Invitados: 1)

Arriba