Red 2 (2013) 720p BDRip Audio Inglés [Subt. Esp] (Acción. Comedia)

Maestro Revolver

Well-known member
Miembro del Staff
Administrador
Registro
9 Ago 2012
Mensajes
3.567








TÍTULO ORIGINAL: Red 2
AÑO: 2013
DURACIÓN: 116 min.
PAÍS: USA
DIRECTOR: Dean Parisot
GUIÓN: Erich Hoeber, Jon Hoeber (Cómic: Warren Ellis, Cully Hamner)
REPARTO: Bruce Willis, John Malkovich, Mary-Louise Parker, Helen Mirren, Byung-Hun Lee, Catherine Zeta-Jones, Anthony Hopkins, David Thewlis, Neal McDonough, Xavier Laurent, Jong Kun Lee, Garrick Hagon, Tim Pigott-Smith, Brian Cox, Philip Arditti, Mitchell Mullen, Martin Sims, Tristan D. Lalla, Khalid Laith, Tom Wu, David Papava, Emilio Doorgasingh, Dan Jeannotte, Aleksandar Mikic, Nathalie Buscombe
PRODUCTORA: Summit Entertainment / Di Bonaventura Pictures / DC Entertainment
GÉNERO: Acción. Comedia | Cómic. Secuela
: http://www.imdb.com/title/tt1821694/






El agente retirado de operaciones encubiertas la CIA, Frank Moses (Bruce Willis), vuelve a reunir a su peculiar equipo de élite para emprender la búsqueda a nivel global de un dispositivo nuclear portátil desaparecido. Por el camino tendrán que enfrentarse a un ejército de implacables asesinos, despiadados terroristas y oficiales del Gobierno enloquecidos por el poder; todos ansiosos por hacerse con un arma devastadora… y todos muy poco conscientes de lo que puede suponer enfrentarse al equipo de Retirados Extremadamente Peligrosos y sus tácticas de la vieja escuela.
























La pelicula NO tiene ninguna marca... solo colocamos el nombre de esta web en las capturas






Código:
General
Format                                   : Matroska
Format version                           : Version 2
File size                                : 2.81 GiB
Duration                                 : 1h 55mn
Overall bit rate                         : 3 471 Kbps
Movie name                               : www.club-hd.com
Encoded date                             : UTC 2013-11-13 20:35:27
Writing application                      : mkvmerge v5.7.0 ('The Whirlwind') built on Jul  8 2012 20:08:51
Writing library                          : libebml v1.2.3 + libmatroska v1.3.0

Video
ID                                       : 1
Format                                   : AVC
Format/Info                              : Advanced Video Codec
Format profile                           : High@L4.1
Format settings, CABAC                   : Yes
Format settings, ReFrames                : 6 frames
Codec ID                                 : V_MPEG4/ISO/AVC
Duration                                 : 1h 55mn
Bit rate                                 : 2 762 Kbps
Width                                    : 1 280 pixels
Height                                   : 534 pixels
Display aspect ratio                     : 2.40:1
Frame rate mode                          : Constant
Frame rate                               : 23.976 fps
Color space                              : YUV
Chroma subsampling                       : 4:2:0
Bit depth                                : 8 bits
Scan type                                : Progressive
Bits/(Pixel*Frame)                       : 0.169
Stream size                              : 2.23 GiB (80%)
Title                                    : www.club-hd.com
Writing library                          : x264 core 133 r2334 a3ac64b
Language                                 : English
Default                                  : Yes
Forced                                   : No

Audio
ID                                       : 2
Format                                   : AC-3
Format/Info                              : Audio Coding 3
Mode extension                           : CM (complete main)
Format settings, Endianness              : Big
Codec ID                                 : A_AC3
Duration                                 : 1h 55mn
Bit rate mode                            : Constant
Bit rate                                 : 640 Kbps
Channel(s)                               : 6 channels
Channel positions                        : Front: L C R, Side: L R, LFE
Sampling rate                            : 48.0 KHz
Bit depth                                : 16 bits
Compression mode                         : Lossy
Stream size                              : 530 MiB (18%)
Title                                    : www.club-hd.com
Language                                 : English
Default                                  : Yes
Forced                                   : No

Text
ID                                       : 3
Format                                   : UTF-8
Codec ID                                 : S_TEXT/UTF8
Codec ID/Info                            : UTF-8 Plain Text
Language                                 : Spanish
Default                                  : Yes
Forced                                   : No

Menu
00:00:00.000                             : en:00:00:00.000
00:08:31.094                             : en:00:08:31.094
00:15:02.193                             : en:00:15:02.193
00:21:30.497                             : en:00:21:30.497
00:28:33.337                             : en:00:28:33.337
00:39:50.888                             : en:00:39:50.888
00:47:24.425                             : en:00:47:24.425
00:54:32.561                             : en:00:54:32.561
01:00:21.326                             : en:01:00:21.326
01:07:47.021                             : en:01:07:47.021
01:11:48.804                             : en:01:11:48.804
01:18:52.770                             : en:01:18:52.770
01:23:16.283                             : en:01:23:16.283
01:28:01.067                             : en:01:28:01.067
01:35:52.455                             : en:01:35:52.455
01:41:44.306                             : en:01:41:44.306
01:45:24.026                             : en:01:45:24.026
01:46:59.913                             : en:01:46:59.913




Sin Contraseña | Simple Extracción








Para ver este contenido oculto, debes dar click en una de las siguientes reacciones : Like Like, Love Love, Haha Haha, Wow Wow, Sad Sad, Angry Angry


Para ver este contenido oculto, debes dar click en una de las siguientes reacciones : Like Like, Love Love, Haha Haha, Wow Wow, Sad Sad, Angry Angry


Para ver este contenido oculto, debes dar click en una de las siguientes reacciones : Like Like, Love Love, Haha Haha, Wow Wow, Sad Sad, Angry Angry


Para ver este contenido oculto, debes dar click en una de las siguientes reacciones : Like Like, Love Love, Haha Haha, Wow Wow, Sad Sad, Angry Angry



 
Última edición:

Usuarios Que Están Viendo Este Tema (Total: 1, Miembros: 0, Invitados: 1)

Quién Leyó Este Tema (Total Miembros: 2)

Arriba