Redemption (2013) 1080p WEB-DL Audo Inglés [Subt. Esp] (Thriller)

Maestro Revolver

Well-known member
Miembro del Staff
Administrador
Registro
9 Ago 2012
Mensajes
3.567








TÍTULO ORIGINAL: Hummingbird (Redemption)
AÑO: 2013
DURACIÓN: 100 min.
PAÍS: Reino Unido
DIRECTOR: Steven Knight
GUIÓN: Steven Knight
REPARTO: Jason Statham, Benedict Wong, Siobhan Hewlett, Jason Wong, Ian Pirie, Lee Nicholas Harris, Vicky McClure, Senem Temiz, Lee Asquith-Coe
PRODUCTORA: IM Global / Shoebox Films
GÉNERO: Thriller
: http://www.imdb.com/title/tt1893256/






La historia se centrará en un ex soldado de las fuerzas especiales del ejército británico atrapado en el submundo criminal londinense.
























La pelicula NO tiene ninguna marca... solo colocamos el nombre de esta web en las capturas






Código:
General
Format                                   : Matroska
Format version                           : Version 2
File size                                : 3.18 GiB
Duration                                 : 1h 40mn
Overall bit rate                         : 4 537 Kbps
Movie name                               : www.club-hd.com
Encoded date                             : UTC 2013-07-05 05:21:49
Writing application                      : mkvmerge v5.7.0 ('The Whirlwind') built on Jul  8 2012 20:08:51
Writing library                          : libebml v1.2.3 + libmatroska v1.3.0

Video
ID                                       : 1
Format                                   : AVC
Format/Info                              : Advanced Video Codec
Format profile                           : High@L4.0
Format settings, CABAC                   : Yes
Format settings, ReFrames                : 5 frames
Codec ID                                 : V_MPEG4/ISO/AVC
Duration                                 : 1h 40mn
Bit rate                                 : 4 063 Kbps
Width                                    : 1 912 pixels
Height                                   : 792 pixels
Display aspect ratio                     : 2.40:1
Frame rate mode                          : Constant
Frame rate                               : 23.976 fps
Color space                              : YUV
Chroma subsampling                       : 4:2:0
Bit depth                                : 8 bits
Scan type                                : Progressive
Bits/(Pixel*Frame)                       : 0.112
Stream size                              : 2.85 GiB (90%)
Title                                    : www.club-hd.com
Language                                 : English
Default                                  : Yes
Forced                                   : No
Color primaries                          : BT.709
Transfer characteristics                 : BT.709
Matrix coefficients                      : BT.709

Audio
ID                                       : 2
Format                                   : AC-3
Format/Info                              : Audio Coding 3
Mode extension                           : CM (complete main)
Format settings, Endianness              : Big
Codec ID                                 : A_AC3
Duration                                 : 1h 40mn
Bit rate mode                            : Constant
Bit rate                                 : 384 Kbps
Channel(s)                               : 6 channels
Channel positions                        : Front: L C R, Side: L R, LFE
Sampling rate                            : 48.0 KHz
Bit depth                                : 16 bits
Compression mode                         : Lossy
Stream size                              : 276 MiB (8%)
Title                                    : www.club-hd.com
Language                                 : English
Default                                  : Yes
Forced                                   : No

Text
ID                                       : 3
Format                                   : UTF-8
Codec ID                                 : S_TEXT/UTF8
Codec ID/Info                            : UTF-8 Plain Text
Title                                    : www.club-hd.com
Language                                 : Spanish
Default                                  : Yes
Forced                                   : No




Sin Contraseña | Simple Extracción








Para ver este contenido oculto, debes dar click en una de las siguientes reacciones : Like Like, Love Love, Haha Haha, Wow Wow, Sad Sad, Angry Angry



Para ver este contenido oculto, debes dar click en una de las siguientes reacciones : Like Like, Love Love, Haha Haha, Wow Wow, Sad Sad, Angry Angry

 
Última edición por un moderador:

Leo-Peru

Well-known member
Registro
27 Ago 2012
Mensajes
1.487
Ubicación
Lima
Gracias, Jason Statham tiene muy buenas pelis, sobre todo de acción a ver que tal con esta que no lo había escuchado :dplgar: luego lo descargo porque tengo que salir xD bye
 

Pedrum

The Buckminster
Registro
28 Ago 2012
Mensajes
1.092
Ubicación
Bahia Blanca
Genial genial genial!!! Ni hablar que me la llevo.. encima en 1080p.. espectacular!!

Gracias Revolver! victory
 

sharklui

Well-known member
Miembro VIP
Registro
28 Ago 2012
Mensajes
1.026
Ubicación
The Matrix
Muchas gracias Revol, no habia escuchado de ella pero tu te nos adelantas siempre que puedes :dplgar:, la esperaré en Latino :bsrs:
 

Usuarios Que Están Viendo Este Tema (Total: 1, Miembros: 0, Invitados: 1)

Quién Leyó Este Tema (Total Miembros: 4)

Arriba