Repo Men (2010) UNRATED 720p BDRip Dual Latino-Inglés [Subt. Esp] (Ciencia ficción. Thriller. Acción)

Maestro Revolver 1

Maestro Revolver

Well-known member
Miembro del Staff
Administrador
Registro
9 Ago 2012
Mensajes
3.567








TÍTULO ORIGINAL: Repo Men
AÑO: 2010
DURACIÓN: 111 min.
PAÍS: USA
DIRECTOR: Miguel Sapochnik
GUIÓN: Eric Garcia, Garrett Lerner (Novela: Eric Garcia)
REPARTO: Jude Law, Forest Whitaker, Liev Schreiber, Alice Braga, Carice van Houten, John Leguizamo, Yvette Nicole Brown, RZA, Liza Lapira, Chandler Canterbury, Bashar Rahal, Lina So, Tanya Clarke, Joe Pingue
PRODUCTORA: Coproducción USA-Canadá; Mambo Film Productions / Stuber Productions / Universal Pictures International (UPI)
GÉNERO: Ciencia ficción. Thriller. Acción
: http://www.imdb.com/title/tt1053424/






Se trata de Repossession Mambo, la historia de un repo man (Law) que se especializa en reclamar órganos artificiales que no han sido pagados. Los repo men son famosos en USA por ser quienes buscan autos, u otras cosas compradas en cuotas y que los compradores han dejado de pagar. En este caso son órganos artificiales. Pero el repo man deberá enfrentarse a otros repo men cuando se vea forzado a escapar al haber robado su propio órgano. Schrieber será el jefe del personaje de Law.
























La pelicula NO tiene ninguna marca... solo colocamos el nombre de esta web en las capturas






Código:
General
Format                                   : Matroska
Format version                           : Version 2
File size                                : 4.26 GiB
Duration                                 : 1h 59mn
Overall bit rate                         : 5 098 Kbps
Movie name                               : www.club-hd.com
Encoded date                             : UTC 2013-08-11 01:49:21
Writing application                      : mkvmerge v5.7.0 ('The Whirlwind') built on Jul  8 2012 20:08:51
Writing library                          : libebml v1.2.3 + libmatroska v1.3.0

Video
ID                                       : 1
Format                                   : AVC
Format/Info                              : Advanced Video Codec
Format profile                           : High@L4.1
Format settings, CABAC                   : Yes
Format settings, ReFrames                : 12 frames
Codec ID                                 : V_MPEG4/ISO/AVC
Duration                                 : 1h 59mn
Bit rate                                 : 4 200 Kbps
Width                                    : 1 280 pixels
Height                                   : 544 pixels
Display aspect ratio                     : 2.35:1
Frame rate mode                          : Constant
Frame rate                               : 23.976 fps
Color space                              : YUV
Chroma subsampling                       : 4:2:0
Bit depth                                : 8 bits
Scan type                                : Progressive
Bits/(Pixel*Frame)                       : 0.252
Stream size                              : 3.43 GiB (80%)
Title                                    : www.club-hd.com
Writing library                          : x264 core 130 r2273 b3065e6
Language                                 : English
Default                                  : Yes
Forced                                   : No

Audio #1
ID                                       : 2
Format                                   : AC-3
Format/Info                              : Audio Coding 3
Mode extension                           : CM (complete main)
Format settings, Endianness              : Big
Codec ID                                 : A_AC3
Duration                                 : 1h 59mn
Bit rate mode                            : Constant
Bit rate                                 : 448 Kbps
Channel(s)                               : 6 channels
Channel positions                        : Front: L C R, Side: L R, LFE
Sampling rate                            : 48.0 KHz
Bit depth                                : 16 bits
Compression mode                         : Lossy
Delay relative to video                  : 200ms
Stream size                              : 383 MiB (9%)
Title                                    : www.club-hd.com  >>  Latino
Language                                 : Spanish
Default                                  : Yes
Forced                                   : No

Audio #2
ID                                       : 3
Format                                   : AC-3
Format/Info                              : Audio Coding 3
Mode extension                           : CM (complete main)
Format settings, Endianness              : Big
Codec ID                                 : A_AC3
Duration                                 : 1h 59mn
Bit rate mode                            : Constant
Bit rate                                 : 448 Kbps
Channel(s)                               : 6 channels
Channel positions                        : Front: L C R, Side: L R, LFE
Sampling rate                            : 48.0 KHz
Bit depth                                : 16 bits
Compression mode                         : Lossy
Stream size                              : 383 MiB (9%)
Title                                    : www.club-hd.com  >>  Inglés
Language                                 : English
Default                                  : No
Forced                                   : No

Text
ID                                       : 4
Format                                   : UTF-8
Codec ID                                 : S_TEXT/UTF8
Codec ID/Info                            : UTF-8 Plain Text
Language                                 : Spanish
Default                                  : No
Forced                                   : No

Menu
00:00:00.000                             : en:00:00:00.000
13:10:59.168                             : en:13:10:59.168
13:16:37.590                             : en:13:16:37.590
13:23:25.163                             : en:13:23:25.163
13:29:53.051                             : en:13:29:53.051
13:33:30.768                             : en:13:33:30.768
13:37:58.578                             : en:13:37:58.578
13:47:19.012                             : en:13:47:19.012
13:53:56.368                             : en:13:53:56.368
13:58:12.415                             : en:13:58:12.415
14:02:23.666                             : en:14:02:23.666
14:07:50.201                             : en:14:07:50.201
00:56:37.132                             : en:00:56:37.132
14:16:48.822                             : en:14:16:48.822
14:26:59.349                             : en:14:26:59.349
14:32:52.535                             : en:14:32:52.535
14:39:41.318                             : en:14:39:41.318
14:46:29.559                             : en:14:46:29.559
14:54:58.526                             : en:14:54:58.526
14:58:52.969                             : en:14:58:52.969








Enlaces de Mega y Google Drive solo disponibles para Miembros VIP

Compra tu Membresía VIP y apoya a Club-HD!

ATENCIÓN! Tenemos TODO el material de Club-HD disponible por Mega y Google Drive, enlaces 100% activos y online hasta la fecha

Llévate tus cuentas Mega PRO III gratis con tu membresía VIP!
Todos los posts vivos con links de Mega y Google Drive.
Todo el material de Club-HD desbloqueado y sin publicidad.

Click Aquí para más información.



Para ver este contenido oculto, debes dar click en una de las siguientes reacciones : Like Like, Love Love, Haha Haha, Wow Wow, Sad Sad, Angry Angry

 
Última edición por un moderador:

Usuarios Que Están Viendo Este Tema (Total: 1, Miembros: 0, Invitados: 1)

Quién Leyó Este Tema (Total Miembros: 1)

Arriba