Resident Evil: Damnation (2012) m-720p Dual Latino-Ingles [Subt. Esp-Ing] (Animación. Terror)

Maestro Revolver

Well-known member
Miembro del Staff
Administrador
Registro
9 Ago 2012
Mensajes
3.569
Reacciones
59.354
Puntos
113

Reputation:









TÍTULO ORIGINAL: biohazard DAMNATION (Resident Evil: Damnation)
AÑO: 2012
DURACIÓN: 97 min.
PAÍS: Japón
DIRECTOR: Makoto Kamiya
GUIÓN: Shotaro Suga
REPARTO: Animation
PRODUCTORA: Capcom / Sony Pictures Entertainment Japan / Digital Frontier
GÉNERO: Animación. Terror. Acción | Zombis. Secuela. Videojuego. 3-D
http://www.imdb.com/title/tt1753496/





El agente especial de Estados Unidos, Leon S. Kennedy, se filtra en un pequeño país de Europa del Este para comprobar rumores de que armas Bio Orgánicas están siendo utilizadas en la guerra. Inmediatamente después de su filtración, recibe órdenes del gobierno de Estados Unidos de abandonar el lugar. Decidido a descubrir la verdad, hace caso omiso de la orden y entra en el campo de batalla para poner fin a la cadena de tragedias causadas por dichas armas. Secuela del film de animación digital "Resident Evil Degeneration".
























La pelicula NO tiene ninguna marca... solo colocamos el nombre de esta web en las capturas






Código:
General
Format                                   : Matroska
Format version                           : Version 2
File size                                : 2.57 GiB
Duration                                 : 1h 40mn
Overall bit rate                         : 3 674 Kbps
Movie name                               : www.club-hd.com
Encoded date                             : UTC 2012-09-20 00:52:48
Writing application                      : mkvmerge v3.4.0 ('Rapunzel') built on May 15 2010 09:38:20
Writing library                          : libebml v0.8.0 + libmatroska v0.9.0

Video
ID                                       : 1
Format                                   : AVC
Format/Info                              : Advanced Video Codec
Format profile                           : High@L3.1
Format settings, CABAC                   : Yes
Format settings, ReFrames                : 4 frames
Codec ID                                 : V_MPEG4/ISO/AVC
Duration                                 : 1h 40mn
Bit rate                                 : 2 870 Kbps
Width                                    : 1 280 pixels
Height                                   : 720 pixels
Display aspect ratio                     : 16:9
Frame rate mode                          : Constant
Frame rate                               : 23.976 fps
Color space                              : YUV
Chroma subsampling                       : 4:2:0
Bit depth                                : 8 bits
Scan type                                : Progressive
Bits/(Pixel*Frame)                       : 0.130
Stream size                              : 1.93 GiB (75%)
Title                                    : www.club-hd.com
Writing library                          : x264 core 120
Language                                 : English
Default                                  : Yes
Forced                                   : No
Color primaries                          : BT.709
Transfer characteristics                 : BT.709
Matrix coefficients                      : BT.709

Audio #1
ID                                       : 2
Format                                   : AC-3
Format/Info                              : Audio Coding 3
Mode extension                           : CM (complete main)
Format settings, Endianness              : Big
Codec ID                                 : A_AC3
Duration                                 : 1h 40mn
Bit rate mode                            : Constant
Bit rate                                 : 384 Kbps
Channel(s)                               : 6 channels
Channel positions                        : Front: L C R, Side: L R, LFE
Sampling rate                            : 48.0 KHz
Bit depth                                : 16 bits
Compression mode                         : Lossy
Stream size                              : 275 MiB (10%)
Title                                    : www.club-hd.com  >>  Latino
Language                                 : Spanish
Default                                  : Yes
Forced                                   : No

Audio #2
ID                                       : 3
Format                                   : AC-3
Format/Info                              : Audio Coding 3
Mode extension                           : CM (complete main)
Format settings, Endianness              : Big
Codec ID                                 : A_AC3
Duration                                 : 1h 40mn
Bit rate mode                            : Constant
Bit rate                                 : 448 Kbps
Channel(s)                               : 6 channels
Channel positions                        : Front: L C R, Side: L R, LFE
Sampling rate                            : 48.0 KHz
Bit depth                                : 16 bits
Compression mode                         : Lossy
Stream size                              : 321 MiB (12%)
Title                                    : www.club-hd.com  >>  Ingles
Language                                 : English
Default                                  : No
Forced                                   : No

Text #1
ID                                       : 4
Format                                   : UTF-8
Codec ID                                 : S_TEXT/UTF8
Codec ID/Info                            : UTF-8 Plain Text
Language                                 : Spanish
Default                                  : No
Forced                                   : No

Text #2
ID                                       : 5
Format                                   : UTF-8
Codec ID                                 : S_TEXT/UTF8
Codec ID/Info                            : UTF-8 Plain Text
Language                                 : English
Default                                  : No
Forced                                   : No











Enlaces de Mega y Fireload solo disponibles para Miembros VIP

Compra tu Membresía VIP y apoya a Club-HD!

ATENCIÓN! Tenemos TODO el material de Club-HD disponible por Mega y Fireload, enlaces 100% activos y online hasta la fecha

Llévate tus cuentas Mega PRO II gratis con tu membresía VIP!
Todos los posts vivos con links de Mega y Fireload.
Todo el material de Club-HD desbloqueado y sin publicidad.

Click Aquí para más información.


Enlaces de Mega y Fireload solo disponibles para Miembros VIP

Compra tu Membresía VIP y apoya a Club-HD!

ATENCIÓN! Tenemos TODO el material de Club-HD disponible por Mega y Fireload, enlaces 100% activos y online hasta la fecha

Llévate tus cuentas Mega PRO II gratis con tu membresía VIP!
Todos los posts vivos con links de Mega y Fireload.
Todo el material de Club-HD desbloqueado y sin publicidad.

Click Aquí para más información.



Para ver este contenido oculto, debes dar click en una de las siguientes reacciones : Like Like, Love Love, Haha Haha, Wow Wow, Sad Sad, Angry Angry
 
Última edición:

Mate78

Ladron de mi cerebro
Miembro del Staff
Súper Moderador
Registro
27 Ago 2012
Mensajes
1.235
Reacciones
918
Puntos
113

Reputation:

te fuiste al caraj , gracias bestia !!!!
 

brunillo

New member
Registro
28 Ago 2012
Mensajes
47
Reacciones
1
Puntos
0

Reputation:

Tremendo Revolver! Gracias y mil gracias mas! jaja... che hay chance de subir a degeneration?... la ví hace muchísimo pero ya no recuerdo la trama :p jeje. Abrazo y gracias de neuvo
 

Nytrux

Active member
Registro
27 Ago 2012
Mensajes
389
Reacciones
46
Puntos
28

Reputation:

Excelente aporte, muchas gracias, tendrás DEGENERATION?
 

Usuarios Que Están Viendo Este Tema (Total: 1, Miembros: 0, Invitados: 1)

Arriba