Resident Evil: Retribution (2012) m-720p Dual Latino-Inglés [Subt. Esp-Ing] (Ciencia ficción. Acción)

Maestro Revolver

Well-known member
Miembro del Staff
Administrador
Registro
9 Ago 2012
Mensajes
3.569
Reacciones
59.346
Puntos
113

Reputation:









TÍTULO ORIGINAL: Resident Evil: Retribution (Resident Evil 5)
AÑO: 2012
DURACIÓN: 95 min.
PAÍS: Canadá
DIRECTOR: Paul W.S. Anderson
GUIÓN: Paul W.S. Anderson
REPARTO: Milla Jovovich, Sienna Guillory, Colin Salmon, Michelle Rodriguez, Shawn Roberts, Boris Kodjoe, Johann Urb, Oded Fehr, Kevin Durand, Li Bingbing
PRODUCTORA: Coproducción Canadá-Alemania
GÉNERO: Ciencia ficción. Acción. Terror | Futuro postapocalíptico. Zombis. Secuela. Videojuego. 3-D
: http://www.imdb.com/title/tt1855325/






Alice (Milla Jovovich) continúa su lucha contra la Umbrella Corporation y sus malvados planes en esta quinta entrega de la franquicia basada en la saga de videojuegos "Resident Evil", que se desarrolla en Tokio. Es secuela de Resident Evil 4: Ultratumba.
























La pelicula NO tiene ninguna marca... solo colocamos el nombre de esta web en las capturas






Código:
General
Format                                   : Matroska
Format version                           : Version 2
File size                                : 2.73 GiB
Duration                                 : 1h 35mn
Overall bit rate                         : 4 090 Kbps
Movie name                               : www.club-hd.com
Encoded date                             : UTC 2012-12-07 23:58:06
Writing application                      : mkvmerge v5.7.0 ('The Whirlwind') built on Jul  8 2012 20:08:51
Writing library                          : libebml v1.2.3 + libmatroska v1.3.0

Video
ID                                       : 1
Format                                   : AVC
Format/Info                              : Advanced Video Codec
Format profile                           : High@L4.1
Format settings, CABAC                   : Yes
Format settings, ReFrames                : 9 frames
Codec ID                                 : V_MPEG4/ISO/AVC
Duration                                 : 1h 35mn
Bit rate                                 : 2 808 Kbps
Width                                    : 1 280 pixels
Height                                   : 534 pixels
Display aspect ratio                     : 2.40:1
Frame rate mode                          : Constant
Frame rate                               : 23.976 fps
Color space                              : YUV
Chroma subsampling                       : 4:2:0
Bit depth                                : 8 bits
Scan type                                : Progressive
Bits/(Pixel*Frame)                       : 0.171
Stream size                              : 1.82 GiB (67%)
Title                                    : www.club-hd.com
Writing library                          : x264 core 129 r2230 1cffe9f
Language                                 : English
Default                                  : Yes
Forced                                   : No

Audio #1
ID                                       : 2
Format                                   : AC-3
Format/Info                              : Audio Coding 3
Mode extension                           : CM (complete main)
Format settings, Endianness              : Big
Codec ID                                 : A_AC3
Duration                                 : 1h 35mn
Bit rate mode                            : Constant
Bit rate                                 : 640 Kbps
Channel(s)                               : 6 channels
Channel positions                        : Front: L C R, Side: L R, LFE
Sampling rate                            : 48.0 KHz
Bit depth                                : 16 bits
Compression mode                         : Lossy
Stream size                              : 438 MiB (16%)
Title                                    : www.club-hd.com  >>  Latino
Language                                 : Spanish
Default                                  : Yes
Forced                                   : No

Audio #2
ID                                       : 3
Format                                   : AC-3
Format/Info                              : Audio Coding 3
Mode extension                           : CM (complete main)
Format settings, Endianness              : Big
Codec ID                                 : A_AC3
Duration                                 : 1h 35mn
Bit rate mode                            : Constant
Bit rate                                 : 640 Kbps
Channel(s)                               : 6 channels
Channel positions                        : Front: L C R, Side: L R, LFE
Sampling rate                            : 48.0 KHz
Bit depth                                : 16 bits
Compression mode                         : Lossy
Stream size                              : 438 MiB (16%)
Title                                    : www.club-hd.com  >>  Inglés
Language                                 : English
Default                                  : No
Forced                                   : No

Text #1
ID                                       : 4
Format                                   : UTF-8
Codec ID                                 : S_TEXT/UTF8
Codec ID/Info                            : UTF-8 Plain Text
Language                                 : Spanish
Default                                  : No
Forced                                   : No

Text #2
ID                                       : 5
Format                                   : UTF-8
Codec ID                                 : S_TEXT/UTF8
Codec ID/Info                            : UTF-8 Plain Text
Language                                 : English
Default                                  : No
Forced                                   : No

Menu
00:00:00.000                             : en:Chapter 1
00:07:43.046                             : en:Chapter 2
00:14:32.538                             : en:Chapter 3
00:21:38.839                             : en:Chapter 4
00:25:39.329                             : en:Chapter 5
00:29:31.186                             : en:Chapter 6
00:34:16.846                             : en:Chapter 7
00:39:14.769                             : en:Chapter 8
00:45:29.435                             : en:Chapter 9
00:50:27.441                             : en:Chapter 10
00:54:42.070                             : en:Chapter 11
01:00:14.861                             : en:Chapter 12
01:05:38.476                             : en:Chapter 13
01:11:22.904                             : en:Chapter 14
01:16:15.571                             : en:Chapter 15
01:21:29.384                             : en:Chapter 16




Sin Contraseña | Simple Extracción





Links Intercambiables





Enlaces de Mega y Fireload solo disponibles para Miembros VIP

Compra tu Membresía VIP y apoya a Club-HD!

ATENCIÓN! Tenemos TODO el material de Club-HD disponible por Mega y Fireload, enlaces 100% activos y online hasta la fecha

Llévate tus cuentas Mega PRO II gratis con tu membresía VIP!
Todos los posts vivos con links de Mega y Fireload.
Todo el material de Club-HD desbloqueado y sin publicidad.

Click Aquí para más información.




Enlaces de Mega y Fireload solo disponibles para Miembros VIP

Compra tu Membresía VIP y apoya a Club-HD!

ATENCIÓN! Tenemos TODO el material de Club-HD disponible por Mega y Fireload, enlaces 100% activos y online hasta la fecha

Llévate tus cuentas Mega PRO II gratis con tu membresía VIP!
Todos los posts vivos con links de Mega y Fireload.
Todo el material de Club-HD desbloqueado y sin publicidad.

Click Aquí para más información.



Para ver este contenido oculto, debes dar click en una de las siguientes reacciones : Like Like, Love Love, Haha Haha, Wow Wow, Sad Sad, Angry Angry
 
Última edición:

trailblazer 2.0

Well-known member
Miembro del Staff
Súper Moderador
Registro
28 Ago 2012
Mensajes
2.787
Reacciones
1.120
Puntos
113
Ubicación
Ciudad Macross

Reputation:

ohhhhhhhhhhhh gracias master, sos groso me la descargo enseguida
 

sicocubo

New member
Registro
1 Nov 2012
Mensajes
101
Reacciones
1
Puntos
0
Edad
36

Reputation:

gracias ´por el aporte!!! me quede esperando a la 1080 saludos
 

marcelo84

Member
Registro
27 Ago 2012
Mensajes
192
Reacciones
17
Puntos
18

Reputation:

gracias.. con esto se completa la coleccion jejeje
 

diego289

Member
Registro
28 Ago 2012
Mensajes
350
Reacciones
19
Puntos
18
Edad
42

Reputation:

La estaba esperando, muchas gracias master. Que pasa con letitbit?
 

Usuarios Que Están Viendo Este Tema (Total: 1, Miembros: 0, Invitados: 1)

Arriba