Rise of the Guardians (2012) m-720p Dual Latino Inglés [Subt. Esp-Ing] (Animación)

Maestro Revolver

Well-known member
Miembro del Staff
Administrador
Registro
9 Ago 2012
Mensajes
3.569
Reacciones
59.366
Puntos
113

Reputation:









TÍTULO ORIGINAL: Rise of the Guardians
AÑO: 2012
DURACIÓN: 97 min.
PAÍS: USA
DIRECTOR: Peter Ramsey
GUIÓN: David Lindsay-Abaire (Libro: William Joyce)
REPARTO: Animation
PRODUCTORA: DreamWorks Animation
GÉNERO: Animación. Fantástico. Aventuras | Navidad. 3-D
: http://www.imdb.com/title/tt1446192/

PREMIOS: 2012: Premios Annie: 2 premios técnicos. 10 nominaciones, incluyendo mejor película
2012: Globos de Oro: Nominada a Mejor película de animación
2012: Satellite Awards: Mejor largometraje de animación
2012: Critics Choice Awards: Nominada a Mejor película de animación






"El origen de los guardianes" cuenta la historia de un grupo de superhéroes con extraordinarios poderes. Cuando un espíritu maligno llamado Sombra se propone inundar de miedo los corazones de los niños de todo el mundo, los Guardianes se unen por primera vez para plantarle cara y defender al mundo de su temido enemigo.
























La pelicula NO tiene ninguna marca... solo colocamos el nombre de esta web en las capturas






Código:
General
Format                                   : Matroska
Format version                           : Version 2
File size                                : 2.61 GiB
Duration                                 : 1h 37mn
Overall bit rate                         : 3 851 Kbps
Movie name                               : www.club-hd.com
Encoded date                             : UTC 2013-02-27 13:54:35
Writing application                      : mkvmerge v5.7.0 ('The Whirlwind') built on Jul  8 2012 20:08:51
Writing library                          : libebml v1.2.3 + libmatroska v1.3.0

Video
ID                                       : 1
Format                                   : AVC
Format/Info                              : Advanced Video Codec
Format profile                           : High@L4.1
Format settings, CABAC                   : Yes
Format settings, ReFrames                : 5 frames
Codec ID                                 : V_MPEG4/ISO/AVC
Duration                                 : 1h 37mn
Bit rate                                 : 2 571 Kbps
Width                                    : 1 280 pixels
Height                                   : 720 pixels
Display aspect ratio                     : 16:9
Frame rate mode                          : Constant
Frame rate                               : 23.976 fps
Color space                              : YUV
Chroma subsampling                       : 4:2:0
Bit depth                                : 8 bits
Scan type                                : Progressive
Bits/(Pixel*Frame)                       : 0.116
Stream size                              : 1.69 GiB (65%)
Title                                    : www.club-hd.com
Writing library                          : x264 core 129 r2245 bc13772
Language                                 : English
Default                                  : Yes
Forced                                   : No

Audio #1
ID                                       : 2
Format                                   : AC-3
Format/Info                              : Audio Coding 3
Mode extension                           : CM (complete main)
Format settings, Endianness              : Big
Codec ID                                 : A_AC3
Duration                                 : 1h 37mn
Bit rate mode                            : Constant
Bit rate                                 : 640 Kbps
Channel(s)                               : 6 channels
Channel positions                        : Front: L C R, Side: L R, LFE
Sampling rate                            : 48.0 KHz
Bit depth                                : 16 bits
Compression mode                         : Lossy
Stream size                              : 445 MiB (17%)
Title                                    : www.club-hd.com  >>  Latino
Language                                 : Spanish
Default                                  : Yes
Forced                                   : No

Audio #2
ID                                       : 3
Format                                   : AC-3
Format/Info                              : Audio Coding 3
Mode extension                           : CM (complete main)
Format settings, Endianness              : Big
Codec ID                                 : A_AC3
Duration                                 : 1h 37mn
Bit rate mode                            : Constant
Bit rate                                 : 640 Kbps
Channel(s)                               : 6 channels
Channel positions                        : Front: L C R, Side: L R, LFE
Sampling rate                            : 48.0 KHz
Bit depth                                : 16 bits
Compression mode                         : Lossy
Stream size                              : 445 MiB (17%)
Title                                    : www.club-hd.com  >>  Inglés
Language                                 : English
Default                                  : No
Forced                                   : No

Text #1
ID                                       : 4
Format                                   : UTF-8
Codec ID                                 : S_TEXT/UTF8
Codec ID/Info                            : UTF-8 Plain Text
Language                                 : Spanish
Default                                  : No
Forced                                   : No

Text #2
ID                                       : 5
Format                                   : UTF-8
Codec ID                                 : S_TEXT/UTF8
Codec ID/Info                            : UTF-8 Plain Text
Language                                 : English
Default                                  : No
Forced                                   : No

Menu
00:00:00.000                             : en:00:00:00.000
00:03:51.481                             : en:00:03:51.481
00:10:34.843                             : en:00:10:34.843
00:16:17.643                             : en:00:16:17.643
00:24:49.363                             : en:00:24:49.363
00:30:38.378                             : en:00:30:38.378
00:36:38.947                             : en:00:36:38.947
00:43:05.166                             : en:00:43:05.166
00:50:22.311                             : en:00:50:22.311
00:58:09.611                             : en:00:58:09.611
01:03:55.331                             : en:01:03:55.331
01:09:12.815                             : en:01:09:12.815
01:14:03.189                             : en:01:14:03.189
01:20:44.923                             : en:01:20:44.923
01:24:51.503                             : en:01:24:51.503
01:28:33.892                             : en:01:28:33.892










Enlaces de Mega y Fireload solo disponibles para Miembros VIP

Compra tu Membresía VIP y apoya a Club-HD!

ATENCIÓN! Tenemos TODO el material de Club-HD disponible por Mega y Fireload, enlaces 100% activos y online hasta la fecha

Llévate tus cuentas Mega PRO II gratis con tu membresía VIP!
Todos los posts vivos con links de Mega y Fireload.
Todo el material de Club-HD desbloqueado y sin publicidad.

Click Aquí para más información.



Enlaces de Mega y Fireload solo disponibles para Miembros VIP

Compra tu Membresía VIP y apoya a Club-HD!

ATENCIÓN! Tenemos TODO el material de Club-HD disponible por Mega y Fireload, enlaces 100% activos y online hasta la fecha

Llévate tus cuentas Mega PRO II gratis con tu membresía VIP!
Todos los posts vivos con links de Mega y Fireload.
Todo el material de Club-HD desbloqueado y sin publicidad.

Click Aquí para más información.



Para ver este contenido oculto, debes dar click en una de las siguientes reacciones : Like Like, Love Love, Haha Haha, Wow Wow, Sad Sad, Angry Angry

 
Última edición:

Mate78

Ladron de mi cerebro
Miembro del Staff
Súper Moderador
Registro
27 Ago 2012
Mensajes
1.236
Reacciones
920
Puntos
113

Reputation:

Que gran regreso . gracias BESTIA !!!! se extrañaban muchooooooooo !!!:aplausos:
 

mx777

Well-known member
Registro
19 Sep 2012
Mensajes
1.343
Reacciones
41
Puntos
48
Edad
34

Reputation:

Gracias por el aporte.
 

sephirothj

Active member
Registro
27 Ago 2012
Mensajes
655
Reacciones
32
Puntos
28
Edad
30

Reputation:

muchas gracias amigos, a descargar se ha dicho
 

DoomsDay Elite

Well-known member
Registro
5 Sep 2012
Mensajes
1.225
Reacciones
1.101
Puntos
113

Reputation:

me alegra demasiado que estén de vuelta !!Tb_up3 espero que no se marchen mas porque crean hordas de impaciencia a todos nosotros que les tenemos ya un cariño
 

Ezze

Well-known member
Miembro del Staff
Súper Moderador
Registro
28 Ago 2012
Mensajes
1.664
Reacciones
1.792
Puntos
113
Ubicación
En la Torre de Observación

Reputation:

bye Revolver... Muchas gracias por esta películas. La esperaba mucho... :aplausos: Sos grandioso!!! :dplgar: Saludos guit4r_3
 

Usuarios Que Están Viendo Este Tema (Total: 1, Miembros: 0, Invitados: 1)

Arriba