Robocop (1987) UNRATED 720p Dual Latino-Inglés [Subt. Esp] (Ciencia ficción. Acción)

Maestro Revolver

Miembro del Staff
Administrador
Registro
9 Ago 2012
Mensajes
3.161








TÍTULO ORIGINAL: Robocop
AÑO: 1987
DURACIÓN: 103 min.
PAÍS: USA
DIRECTOR: Paul Verhoeven
GUIÓN: Edward Neumeier, Michael Miner
REPARTO: Peter Weller, Nancy Allen, Daniel O'Herlihy, Ronny Cox, Kurtwood Smith, Miguel Ferrer
PRODUCTORA: Metro-Goldwyn-Mayer (MGM)
GÉNERO: Ciencia ficción. Fantástico. Acción | Robots. Cyberpunk. Película de culto
: http://www.imdb.com/title/tt0093870/

Premios: 1987: 2 nominaciones al Oscar: Mejor montaje, sonido
1987: Festival de Sitges: Mejor director (Paul Verhoeven)
1988: BAFTA: Nominada mejores efectos especiales visuales y maquillaje







Ambientada en una sociedad futura. Alex J. Murphy, agente de policía de Detroit, es asesinado en acto de servicio. Para acabar con la delincuencia en la ciudad, las autoridades aprueban la creación de una máquina letal, mitad robot, mitad hombre, a la que llaman Robocop, y para fabricarla utilizan el cuerpo de Murphy. El experimento parece un éxito, pero el policía, a pesar de estar muerto, conserva la memoria y decide vengarse de sus asesinos.
























La pelicula NO tiene ninguna marca... solo colocamos el nombre de esta web en las capturas






Código:
General
Format                                   : Matroska
Format version                           : Version 2
File size                                : 3.46 GiB
Duration                                 : 1h 43mn
Overall bit rate                         : 4 800 Kbps
Movie name                               : www.club-hd.com
Encoded date                             : UTC 2013-06-22 21:47:19
Writing application                      : mkvmerge v5.7.0 ('The Whirlwind') built on Jul  8 2012 20:08:51
Writing library                          : libebml v1.2.3 + libmatroska v1.3.0

Video
ID                                       : 1
Format                                   : AVC
Format/Info                              : Advanced Video Codec
Format profile                           : High@L4.1
Format settings, CABAC                   : Yes
Format settings, ReFrames                : 8 frames
Codec ID                                 : V_MPEG4/ISO/AVC
Duration                                 : 1h 43mn
Bit rate                                 : 3 809 Kbps
Nominal bit rate                         : 4 000 Kbps
Width                                    : 1 280 pixels
Height                                   : 688 pixels
Display aspect ratio                     : 1.85:1
Frame rate mode                          : Constant
Frame rate                               : 23.976 fps
Color space                              : YUV
Chroma subsampling                       : 4:2:0
Bit depth                                : 8 bits
Scan type                                : Progressive
Bits/(Pixel*Frame)                       : 0.180
Stream size                              : 2.75 GiB (79%)
Title                                    : www.club-hd.com
Writing library                          : x264 core 120
Language                                 : English
Default                                  : Yes
Forced                                   : No
Color primaries                          : BT.709
Transfer characteristics                 : BT.709
Matrix coefficients                      : BT.709

Audio #1
ID                                       : 2
Format                                   : AC-3
Format/Info                              : Audio Coding 3
Mode extension                           : CM (complete main)
Format settings, Endianness              : Big
Codec ID                                 : A_AC3
Duration                                 : 1h 43mn
Bit rate mode                            : Constant
Bit rate                                 : 448 Kbps
Channel(s)                               : 6 channels
Channel positions                        : Front: L C R, Side: L R, LFE
Sampling rate                            : 48.0 KHz
Bit depth                                : 16 bits
Compression mode                         : Lossy
Stream size                              : 331 MiB (9%)
Title                                    : www.club-hd.com  >>  Latino
Language                                 : Spanish
Default                                  : Yes
Forced                                   : No

Audio #2
ID                                       : 3
Format                                   : AC-3
Format/Info                              : Audio Coding 3
Mode extension                           : CM (complete main)
Format settings, Endianness              : Big
Codec ID                                 : A_AC3
Duration                                 : 1h 43mn
Bit rate mode                            : Constant
Bit rate                                 : 448 Kbps
Channel(s)                               : 6 channels
Channel positions                        : Front: L C R, Side: L R, LFE
Sampling rate                            : 48.0 KHz
Bit depth                                : 16 bits
Compression mode                         : Lossy
Stream size                              : 331 MiB (9%)
Title                                    : www.club-hd.com  >>  Inglés
Language                                 : English
Default                                  : No
Forced                                   : No

Text
ID                                       : 4
Format                                   : UTF-8
Codec ID                                 : S_TEXT/UTF8
Codec ID/Info                            : UTF-8 Plain Text
Language                                 : Spanish
Default                                  : No
Forced                                   : No

Menu
00:00:00.000                             : en:Chapter 1
00:06:40.691                             : en:Chapter 2
00:14:03.133                             : en:Chapter 3
00:17:28.130                             : en:Chapter 4
00:26:36.177                             : en:Chapter 5
00:34:23.561                             : en:Chapter 6
00:40:28.342                             : en:Chapter 7
00:45:10.833                             : en:Chapter 8
00:49:42.145                             : en:Chapter 9
00:57:43.626                             : en:Chapter 10
01:01:36.734                             : en:Chapter 11
01:08:20.679                             : en:Chapter 12
01:15:55.384                             : en:Chapter 13
01:22:42.040                             : en:Chapter 14
01:33:49.373                             : en:Chapter 15
01:37:00.314                             : en:Chapter 16








Enlaces de Mega y Google Drive solo disponibles para Miembros VIP

Compra tu Membresía VIP y apoya a Club-HD!

ATENCIÓN! Tenemos TODO el material de Club-HD disponible por Mega y Google Drive, enlaces 100% activos y online hasta la fecha

Llévate tus cuentas Mega PRO III gratis con tu membresía VIP!
Todos los posts vivos con links de Mega y Google Drive.
Todo el material de Club-HD desbloqueado y sin publicidad.

Click Aquí para más información.



Para ver este contenido oculto, debes dar click en una de las siguientes reacciones : Like Like, Love Love, Haha Haha, Wow Wow, Sad Sad, Angry Angry

 
Última edición por un moderador:
Registro
28 Ago 2012
Mensajes
941
Edad
46
Ubicación
COAHUILA MEXICO
ya estaba por descargar la version 1080p, pero salio, esta...... es que casi no tengo espacio en el disco duro gracias señores administradores por tan buen trabajo no hay palabras para agradecer mas
 

Usuarios Que Están Viendo Este Tema (Total: 1, Miembros: 0, Invitados: 1)

Quién Leyó Este Tema (Total Miembros: 5)

Arriba