Robots (2005) m-720p Dual Latino-Inglés [Subt. Esp-Ing] (Animation)

Maestro Revolver

Well-known member
Miembro del Staff
Administrador
Registro
9 Ago 2012
Mensajes
3.567

Rep:









TÍTULO ORIGINAL: Robots
AÑO: 2005
DURACIÓN: 91 min.
PAÍS: USA
DIRECTOR: Chris Wedge, Carlos Saldanha
GUIÓN: Lowell Ganz, Babaloo Mandel
REPARTO: Animation
PRODUCTORA: 20th Century Fox
GÉNERO: Animación. Ciencia ficción. Aventuras. Infantil | Robots
: http://www.imdb.es/title/tt0358082/






Rodney Hojalata es un joven y genial inventor que sueña con hacer del mundo un lugar mejor. Cappy es una atractiva ejecutiva robot de la que Rodney se queda prendado al instante. Ratchet es el tirano corporativo; y luego está el Gran Soldador, un magistral inventor que ha perdido el norte … hasta que tropieza con el irreprimible soñador de Rodney. Además está un grupo de robots inadaptados conocidos como los Oxidados liderados por Manivela.
























La pelicula NO tiene ninguna marca... solo colocamos el nombre de esta web en las capturas






Código:
General
Format                                   : Matroska
Format version                           : Version 2
File size                                : 2.55 GiB
Duration                                 : 1h 29mn
Overall bit rate                         : 4 060 Kbps
Movie name                               : www.club-hd.com
Encoded date                             : UTC 2013-02-12 18:56:29
Writing application                      : mkvmerge v5.7.0 ('The Whirlwind') built on Jul  8 2012 20:08:51
Writing library                          : libebml v1.2.3 + libmatroska v1.3.0

Video
ID                                       : 1
Format                                   : AVC
Format/Info                              : Advanced Video Codec
Format profile                           : High@L4.1
Format settings, CABAC                   : Yes
Format settings, ReFrames                : 6 frames
Codec ID                                 : V_MPEG4/ISO/AVC
Duration                                 : 1h 29mn
Bit rate                                 : 3 000 Kbps
Width                                    : 1 280 pixels
Height                                   : 694 pixels
Display aspect ratio                     : 1.85:1
Frame rate mode                          : Constant
Frame rate                               : 23.976 fps
Color space                              : YUV
Chroma subsampling                       : 4:2:0
Bit depth                                : 8 bits
Scan type                                : Progressive
Bits/(Pixel*Frame)                       : 0.141
Stream size                              : 1.81 GiB (71%)
Title                                    : www.club-hd.com
Writing library                          : x264 core 129 r2245 bc13772
Language                                 : English
Default                                  : Yes
Forced                                   : No

Audio #1
ID                                       : 2
Format                                   : AC-3
Format/Info                              : Audio Coding 3
Mode extension                           : CM (complete main)
Format settings, Endianness              : Big
Codec ID                                 : A_AC3
Duration                                 : 1h 29mn
Bit rate mode                            : Constant
Bit rate                                 : 448 Kbps
Channel(s)                               : 6 channels
Channel positions                        : Front: L C R, Side: L R, LFE
Sampling rate                            : 48.0 KHz
Bit depth                                : 16 bits
Compression mode                         : Lossy
Stream size                              : 288 MiB (11%)
Title                                    : www.club-hd.com  >>  Latino
Language                                 : Spanish
Default                                  : Yes
Forced                                   : No

Audio #2
ID                                       : 3
Format                                   : AC-3
Format/Info                              : Audio Coding 3
Mode extension                           : CM (complete main)
Format settings, Endianness              : Big
Codec ID                                 : A_AC3
Duration                                 : 1h 29mn
Bit rate mode                            : Constant
Bit rate                                 : 640 Kbps
Channel(s)                               : 6 channels
Channel positions                        : Front: L C R, Side: L R, LFE
Sampling rate                            : 48.0 KHz
Bit depth                                : 16 bits
Compression mode                         : Lossy
Stream size                              : 411 MiB (16%)
Title                                    : www.club-hd.com  >>  Inglés
Language                                 : English
Default                                  : No
Forced                                   : No

Text #1
ID                                       : 4
Format                                   : UTF-8
Codec ID                                 : S_TEXT/UTF8
Codec ID/Info                            : UTF-8 Plain Text
Title                                    : Forzados
Language                                 : Spanish
Default                                  : Yes
Forced                                   : No

Text #2
ID                                       : 5
Format                                   : UTF-8
Codec ID                                 : S_TEXT/UTF8
Codec ID/Info                            : UTF-8 Plain Text
Language                                 : Spanish
Default                                  : No
Forced                                   : No

Text #3
ID                                       : 6
Format                                   : UTF-8
Codec ID                                 : S_TEXT/UTF8
Codec ID/Info                            : UTF-8 Plain Text
Language                                 : English
Default                                  : No
Forced                                   : No










Enlaces de Mega y Google Drive solo disponibles para Miembros VIP

Compra tu Membresía VIP y apoya a Club-HD!

ATENCIÓN! Tenemos TODO el material de Club-HD disponible por Mega y Google Drive, enlaces 100% activos y online hasta la fecha

Llévate tus cuentas Mega PRO III gratis con tu membresía VIP!
Todos los posts vivos con links de Mega y Google Drive.
Todo el material de Club-HD desbloqueado y sin publicidad.

Click Aquí para más información.




Enlaces de Mega y Google Drive solo disponibles para Miembros VIP

Compra tu Membresía VIP y apoya a Club-HD!

ATENCIÓN! Tenemos TODO el material de Club-HD disponible por Mega y Google Drive, enlaces 100% activos y online hasta la fecha

Llévate tus cuentas Mega PRO III gratis con tu membresía VIP!
Todos los posts vivos con links de Mega y Google Drive.
Todo el material de Club-HD desbloqueado y sin publicidad.

Click Aquí para más información.



Para ver este contenido oculto, debes dar click en una de las siguientes reacciones : Like Like, Love Love, Haha Haha, Wow Wow, Sad Sad, Angry Angry

 
Última edición por un moderador:

DoomsDay Elite

Well-known member
Registro
5 Sep 2012
Mensajes
1.222

Rep:

ustedes traen alegria a todo mundo subiendo peliculas que habíamos olvidado y ver que las ponen aqui otra vez nos hacen sonreír con grandes recuerdos muchas gracias :dplgar:
 

sharklui

Well-known member
Miembro VIP
Registro
28 Ago 2012
Mensajes
1.026
Ubicación
The Matrix

Rep:

Tb_up3
:dplgar:

No me deberia extrañar tus excelentes aportes de gran calidad, pero me sigues sorprendiendo, Dios te Bendiga :aplausos:

Exitos !!!

bye
 

Vicure

Well-known member
Registro
27 Ago 2012
Mensajes
1.748

Rep:

Descargando y directitaa la coleccion de peliculas de animacion...
 

rustico

New member
Registro
1 Sep 2012
Mensajes
107
Edad
34

Rep:

buena.. pelicula.. para los pekes..!:! muchas gracias estimadoo..:!! bajandooo!!
 

elgabon

New member
Registro
27 Ago 2012
Mensajes
121
Edad
42

Rep:

Excelente aporte, una pelicula espectacular!! Mis hijos agradecidos!!!

Muchas Gracias!!
 

Usuarios Que Están Viendo Este Tema (Total: 1, Miembros: 0, Invitados: 1)

Quién Leyó Este Tema (Total Miembros: 3)

Arriba