Rust And Bone (2012) m-720p BDRip Audio Francés [Subt. Esp] (Romance. Drama. Intriga)

Max

Admin
Miembro del Staff
Administrador
Registro
8 Ago 2012
Mensajes
5.585
Reacciones
23.738
Puntos
113
Ubicación
Disco C

Reputation:





TÍTULO ORIGINAL: De rouille et d'os
AÑO: 2012
DURACIÓN: 120 min.
PAÍS: Francia
DIRECTOR: Jacques Audiard
GUIÓN: Jacques Audiard, Thomas Bidegain (Novela: Craig Davidson)
MÚSICA: Alexandre Desplat
FOTOGRAFÍA: Stéphane Fontaine
REPARTO: Matthias Schoenaerts, Marion Cotillard, Céline Sallette, Bouli Lanners, Alex Martin, Corinne Masiero, Tibo Vandenborre
PRODUCTORA: Coproducción Francia-Bélgica; France 2 Cinéma / Les Films du Fleuve / Page 114
PREMIOS:
2012: Festival de Cannes: Sección oficial de largometrajes
2012: Seminci: Mejor dirección, Mejor actor (Schoenaerts), Mejor guión
GÉNERO: Romance. Drama. Intriga

http://www.imdb.com/title/tt2053425/






De repente, Alí tiene que hacerse cargo de su hijo Sam, un niño de cinco años al que apenas conoce. Como no tiene casa, ni dinero, ni amigos, se refugia en Antibes, en casa de su hermana, que los acoge cariñosamente. Tras una pelea en una discoteca, conoce a Stéphanie, una domadora de orcas en Marineland.







































Código:
General
Complete name                            : Rust And Bone (2012) m-720p BDRip Audio Francés [Subt. Esp].mkv
Format                                   : Matroska
Format version                           : Version 2
File size                                : 2.60 GiB
Duration                                 : 2h 2mn
Overall bit rate                         : 3 051 Kbps
Movie name                               : www.club-hd.com --> Rust And Bone (2012) m-720p BDRip Audio Francés [Subt. Esp]
Encoded date                             : UTC 2012-11-27 13:39:51
Writing application                      : mkvmerge v5.8.0 ('No Sleep / Pillow') built on Sep  2 2012 15:37:04
Writing library                          : libebml v1.2.3 + libmatroska v1.3.0

Video
ID                                       : 1
Format                                   : AVC
Format/Info                              : Advanced Video Codec
Format profile                           : High@L4.1
Format settings, CABAC                   : Yes
Format settings, ReFrames                : 9 frames
Codec ID                                 : V_MPEG4/ISO/AVC
Duration                                 : 2h 2mn
Bit rate                                 : 2 600 Kbps
Width                                    : 1 280 pixels
Height                                   : 534 pixels
Display aspect ratio                     : 2.40:1
Frame rate mode                          : Constant
Frame rate                               : 24.000 fps
Color space                              : YUV
Chroma subsampling                       : 4:2:0
Bit depth                                : 8 bits
Scan type                                : Progressive
Bits/(Pixel*Frame)                       : 0.158
Stream size                              : 2.17 GiB (83%)
Title                                    : www.club-hd.com --> Rust And Bone (2012) m-720p BDRip Audio Francés [Subt. Esp]
Writing library                          : x264 core 129 r2230 1cffe9f
Encoding settings                        : cabac=1 / ref=9 / deblock=1:-3:-3 / analyse=0x3:0x113 / me=umh / subme=10 / psy=1 / psy_rd=1.00:0.00 / mixed_ref=1 / me_range=16 / chroma_me=1 / trellis=2 / 8x8dct=1 / cqm=0 / deadzone=21,11 / fast_pskip=1 / chroma_qp_offset=-2 / threads=48 / lookahead_threads=8 / sliced_threads=0 / nr=0 / decimate=1 / interlaced=0 / bluray_compat=0 / constrained_intra=0 / bframes=3 / b_pyramid=2 / b_adapt=1 / b_bias=0 / direct=1 / weightb=1 / open_gop=0 / weightp=2 / keyint=250 / keyint_min=24 / scenecut=40 / intra_refresh=0 / rc=2pass / mbtree=0 / bitrate=2600 / ratetol=1.0 / qcomp=0.60 / qpmin=0 / qpmax=69 / qpstep=4 / cplxblur=20.0 / qblur=0.5 / ip_ratio=1.40 / pb_ratio=1.30 / aq=1:0.80
Language                                 : French
Default                                  : Yes
Forced                                   : No

Audio
ID                                       : 2
Format                                   : AC-3
Format/Info                              : Audio Coding 3
Mode extension                           : CM (complete main)
Format settings, Endianness              : Big
Codec ID                                 : A_AC3
Duration                                 : 2h 2mn
Bit rate mode                            : Constant
Bit rate                                 : 448 Kbps
Channel(s)                               : 6 channels
Channel positions                        : Front: L C R, Side: L R, LFE
Sampling rate                            : 48.0 KHz
Bit depth                                : 16 bits
Compression mode                         : Lossy
Stream size                              : 392 MiB (15%)
Title                                    : Rust And Bone (2012) - Francés AC3 5.1
Language                                 : French
Default                                  : Yes
Forced                                   : No

Text
ID                                       : 3
Format                                   : UTF-8
Codec ID                                 : S_TEXT/UTF8
Codec ID/Info                            : UTF-8 Plain Text
Title                                    : Subtítulos Español
Language                                 : Spanish
Default                                  : Yes
Forced                                   : No

Menu
00:00:00.000                             : en:Chapter 1
00:11:16.667                             : en:Chapter 2
00:18:44.292                             : en:Chapter 3
00:30:12.250                             : en:Chapter 4
00:39:19.792                             : en:Chapter 5
00:49:35.292                             : en:Chapter 6
00:59:25.292                             : en:Chapter 7
01:11:04.208                             : en:Chapter 8
01:21:56.500                             : en:Chapter 9
01:31:13.625                             : en:Chapter 10
01:41:02.708                             : en:Chapter 11
01:49:31.500                             : en:Chapter 12







Todos los links son Intercambiables!





Enlaces de Mega y Fireload solo disponibles para Miembros VIP

Compra tu Membresía VIP y apoya a Club-HD!

ATENCIÓN! Tenemos TODO el material de Club-HD disponible por Mega y Fireload, enlaces 100% activos y online hasta la fecha

Llévate tus cuentas Mega PRO II gratis con tu membresía VIP!
Todos los posts vivos con links de Mega y Fireload.
Todo el material de Club-HD desbloqueado y sin publicidad.

Click Aquí para más información.




Enlaces de Mega y Fireload solo disponibles para Miembros VIP

Compra tu Membresía VIP y apoya a Club-HD!

ATENCIÓN! Tenemos TODO el material de Club-HD disponible por Mega y Fireload, enlaces 100% activos y online hasta la fecha

Llévate tus cuentas Mega PRO II gratis con tu membresía VIP!
Todos los posts vivos con links de Mega y Fireload.
Todo el material de Club-HD desbloqueado y sin publicidad.

Click Aquí para más información.





Para ver este contenido oculto, debes dar click en una de las siguientes reacciones : Like Like, Love Love, Haha Haha, Wow Wow, Sad Sad, Angry Angry
 
Última edición por un moderador:

Yonatan

Admin
Miembro del Staff
Administrador
Registro
27 Ago 2012
Mensajes
1.768
Reacciones
3.728
Puntos
113
Edad
28
Ubicación
Chile, Sexta Región

Reputation:

excelente Max! con razon no respondias mi MP ya que estabas subiendo esta pelicula :D
 

Max

Admin
Miembro del Staff
Administrador
Registro
8 Ago 2012
Mensajes
5.585
Reacciones
23.738
Puntos
113
Ubicación
Disco C

Reputation:

Para hoy tengo dos estrenos mi pichón. :dplgar:
 

Mate78

Ladron de mi cerebro
Miembro del Staff
Súper Moderador
Registro
27 Ago 2012
Mensajes
1.235
Reacciones
918
Puntos
113

Reputation:

MAX , cada dia aprende mas y mas , gracias juaaaaa juaaaaa
 

Usuarios Que Están Viendo Este Tema (Total: 1, Miembros: 0, Invitados: 1)

Arriba