Saga de Resident Evil (2002-2021) 1080p AMZN WEB-DL Latino-Inglés [Subt.Esp] (Terror. Video Juego)

Trevor

Well-known member
Miembro del Staff
Uploader
Registro
17 May 2018
Mensajes
1.612
Edad
33





Biohazard —nombre con que se conoce en Japón—, rebautizado en Estados Unidos y Europa como Resident Evil es una serie de Videojuegos de terror y una franquicia de medios, entre los que se incluyen manga, novelas, películas y coleccionables como figuras de acción, guías de estrategia y otras publicaciones.



Código:
Format                      : Matroska
Format version              : Version 4
File size                   : 7.11 GiB
Duration                    : 2 h 33 min
Overall bit rate            : 6 636 kb/s
Encoded date                : UTC 2022-05-29 16:38:56
Writing application         : mkvmerge v58.0.0 ('Supper's Ready') 32-bit
Writing library             : libebml v1.4.2 + libmatroska v1.6.4

Video
ID                          : 1
Format                      : AVC
Format/Info                 : Advanced Video Codec
Format profile              : High@L4
Format settings             : CABAC / 4 Ref Frames
Format settings, CABAC      : Yes
Format settings, Reference  : 4 frames
Codec ID                    : V_MPEG4/ISO/AVC
Duration                    : 1 h 40 min
Bit rate mode               : Constant
Bit rate                    : 9 242 kb/s
Nominal bit rate            : 10 000 kb/s
Width                       : 1 920 pixels
Height                      : 1 040 pixels
Display aspect ratio        : 1.85:1
Frame rate mode             : Constant
Frame rate                  : 23.976 (24000/1001) FPS
Color space                 : YUV
Chroma subsampling          : 4:2:0
Bit depth                   : 8 bits
Scan type                   : Progressive
Bits/(Pixel*Frame)          : 0.193
Stream size                 : 6.50 GiB (91%)
Default                     : Yes
Forced                      : No
Color range                 : Limited
Color primaries             : BT.709
Transfer characteristics    : BT.709
Matrix coefficients         : BT.709

Audio #1
ID                          : 2
Format                      : E-AC-3
Format/Info                 : Enhanced AC-3
Commercial name             : Dolby Digital Plus
Codec ID                    : A_EAC3
Duration                    : 1 h 40 min
Bit rate mode               : Constant
Bit rate                    : 224 kb/s
Channel(s)                  : 2 channels
Channel layout              : L R
Sampling rate               : 48.0 kHz
Frame rate                  : 31.250 FPS (1536 SPF)
Compression mode            : Lossy
Stream size                 : 161 MiB (2%)
Title                       : Spanish
Language                    : Spanish
Service kind                : Complete Main
Default                     : Yes
Forced                      : No

Audio #2
ID                          : 3
Format                      : E-AC-3
Format/Info                 : Enhanced AC-3
Commercial name             : Dolby Digital Plus
Codec ID                    : A_EAC3
Duration                    : 1 h 40 min
Bit rate mode               : Constant
Bit rate                    : 640 kb/s
Channel(s)                  : 6 channels
Channel layout              : L R C LFE Ls Rs
Sampling rate               : 48.0 kHz
Frame rate                  : 31.250 FPS (1536 SPF)
Compression mode            : Lossy
Stream size                 : 461 MiB (6%)
Title                       : English
Language                    : English
Service kind                : Complete Main
Default                     : No
Forced                      : No

Text #1
ID                          : 4
Format                      : UTF-8
Codec ID                    : S_TEXT/UTF8
Codec ID/Info               : UTF-8 Plain Text
Duration                    : 1 h 33 min
Bit rate                    : 29 b/s
Count of elements           : 693
Stream size                 : 20.5 KiB (0%)
Title                       : Spanish [Full]
Language                    : Spanish
Default                     : No
Forced                      : No

Text #2
ID                          : 5
Format                      : UTF-8
Codec ID                    : S_TEXT/UTF8
Codec ID/Info               : UTF-8 Plain Text
Duration                    : 1 h 39 min
Bit rate                    : 31 b/s
Count of elements           : 718
Stream size                 : 23.1 KiB (0%)
Title                       : Castilian [Full]
Language                    : Spanish
Default                     : No
Forced                      : No

Text #3
ID                          : 6
Format                      : UTF-8
Codec ID                    : S_TEXT/UTF8
Codec ID/Info               : UTF-8 Plain Text
Duration                    : 1 h 31 min
Bit rate                    : 31 b/s
Count of elements           : 720
Stream size                 : 21.3 KiB (0%)
Title                       : English [Full]
Language                    : English
Default                     : No
Forced                      : No

Text #4
ID                          : 7
Format                      : UTF-8
Codec ID                    : S_TEXT/UTF8
Codec ID/Info               : UTF-8 Plain Text
Duration                    : 1 h 38 min
Bit rate                    : 43 b/s
Count of elements           : 958
Stream size                 : 31.2 KiB (0%)
Title                       : English [SDH]
Language                    : English
Default                     : No
Forced                      : No

Text #5
ID                          : 8
Format                      : UTF-8
Codec ID                    : S_TEXT/UTF8
Codec ID/Info               : UTF-8 Plain Text
Duration                    : 1 h 32 min
Bit rate                    : 0 b/s
Count of elements           : 24
Stream size                 : 623 Bytes (0%)
Title                       : French [Forced]
Language                    : French
Default                     : No
Forced                      : Yes

Text #6
ID                          : 9
Format                      : UTF-8
Codec ID                    : S_TEXT/UTF8
Codec ID/Info               : UTF-8 Plain Text
Duration                    : 1 h 32 min
Bit rate                    : 33 b/s
Count of elements           : 723
Stream size                 : 23.0 KiB (0%)
Title                       : French [Full]
Language                    : French
Default                     : No
Forced                      : No

Text #7
ID                          : 10
Format                      : UTF-8
Codec ID                    : S_TEXT/UTF8
Codec ID/Info               : UTF-8 Plain Text
Duration                    : 1 h 32 min
Bit rate                    : 0 b/s
Count of elements           : 22
Stream size                 : 556 Bytes (0%)
Title                       : French (Canada) [Forced]
Language                    : French
Default                     : No
Forced                      : Yes

Text #8
ID                          : 11
Format                      : UTF-8
Codec ID                    : S_TEXT/UTF8
Codec ID/Info               : UTF-8 Plain Text
Duration                    : 1 h 39 min
Bit rate                    : 32 b/s
Count of elements           : 710
Stream size                 : 23.5 KiB (0%)
Title                       : German [Full]
Language                    : German
Default                     : No
Forced                      : No

Text #9
ID                          : 12
Format                      : UTF-8
Codec ID                    : S_TEXT/UTF8
Codec ID/Info               : UTF-8 Plain Text
Duration                    : 1 h 32 min
Bit rate                    : 0 b/s
Count of elements           : 22
Stream size                 : 644 Bytes (0%)
Title                       : Italian [Forced]
Language                    : Italian
Default                     : No
Forced                      : Yes

Text #10
ID                          : 13
Format                      : UTF-8
Codec ID                    : S_TEXT/UTF8
Codec ID/Info               : UTF-8 Plain Text
Duration                    : 1 h 32 min
Bit rate                    : 31 b/s
Count of elements           : 699
Stream size                 : 21.6 KiB (0%)
Title                       : Italian [Full]
Language                    : Italian
Default                     : No
Forced                      : No

Text #11
ID                          : 14
Format                      : UTF-8
Codec ID                    : S_TEXT/UTF8
Codec ID/Info               : UTF-8 Plain Text
Duration                    : 1 h 39 min
Bit rate                    : 29 b/s
Count of elements           : 711
Stream size                 : 21.6 KiB (0%)
Title                       : Portuguese [Full]
Language                    : Portuguese
Default                     : No
Forced                      : No

Text #12
ID                          : 15
Format                      : UTF-8
Codec ID                    : S_TEXT/UTF8
Codec ID/Info               : UTF-8 Plain Text
Duration                    : 1 h 32 min
Bit rate                    : 30 b/s
Count of elements           : 662
Stream size                 : 20.4 KiB (0%)
Title                       : Brazilian Portuguese [Full]
Language                    : Portuguese
Default                     : No
Forced                      : No

Text #13
ID                          : 16
Format                      : UTF-8
Codec ID                    : S_TEXT/UTF8
Codec ID/Info               : UTF-8 Plain Text
Duration                    : 1 h 39 min
Bit rate                    : 25 b/s
Count of elements           : 692
Stream size                 : 18.5 KiB (0%)
Title                       : Polish [Full]
Language                    : Polish
Default                     : No
Forced                      : No

Text #14
ID                          : 17
Format                      : UTF-8
Codec ID                    : S_TEXT/UTF8
Codec ID/Info               : UTF-8 Plain Text
Duration                    : 1 h 39 min
Bit rate                    : 29 b/s
Count of elements           : 712
Stream size                 : 21.4 KiB (0%)
Title                       : Turkish [Full]
Language                    : Turkish
Default                     : No
Forced                      : No

Text #15
ID                          : 18
Format                      : UTF-8
Codec ID                    : S_TEXT/UTF8
Codec ID/Info               : UTF-8 Plain Text
Duration                    : 1 h 39 min
Bit rate                    : 31 b/s
Count of elements           : 823
Stream size                 : 22.7 KiB (0%)
Title                       : Swedish [Full]
Language                    : Swedish
Default                     : No
Forced                      : No

Text #16
ID                          : 19
Format                      : UTF-8
Codec ID                    : S_TEXT/UTF8
Codec ID/Info               : UTF-8 Plain Text
Duration                    : 1 h 39 min
Bit rate                    : 28 b/s
Count of elements           : 690
Stream size                 : 21.1 KiB (0%)
Title                       : Dutch [Full]
Language                    : Dutch
Default                     : No
Forced                      : No

Text #17
ID                          : 20
Format                      : UTF-8
Codec ID                    : S_TEXT/UTF8
Codec ID/Info               : UTF-8 Plain Text
Duration                    : 1 h 39 min
Bit rate                    : 47 b/s
Count of elements           : 713
Stream size                 : 34.9 KiB (0%)
Title                       : Russian [Full]
Language                    : Russian
Default                     : No
Forced                      : No

Text #18
ID                          : 21
Format                      : UTF-8
Codec ID                    : S_TEXT/UTF8
Codec ID/Info               : UTF-8 Plain Text
Duration                    : 1 h 39 min
Bit rate                    : 43 b/s
Count of elements           : 713
Stream size                 : 31.7 KiB (0%)
Title                       : Arabic [Full]
Language                    : Arabic
Default                     : No
Forced                      : No

Text #19
ID                          : 22
Format                      : UTF-8
Codec ID                    : S_TEXT/UTF8
Codec ID/Info               : UTF-8 Plain Text
Duration                    : 1 h 32 min
Bit rate                    : 73 b/s
Count of elements           : 757
Stream size                 : 49.9 KiB (0%)
Title                       : Bengali [Full]
Language                    : Bengali
Default                     : No
Forced                      : No

Text #20
ID                          : 23
Format                      : UTF-8
Codec ID                    : S_TEXT/UTF8
Codec ID/Info               : UTF-8 Plain Text
Duration                    : 1 h 32 min
Bit rate                    : 64 b/s
Count of elements           : 757
Stream size                 : 44.2 KiB (0%)
Title                       : Telugu [Full]
Language                    : Telugu
Default                     : No
Forced                      : No

Text #21
ID                          : 24
Format                      : UTF-8
Codec ID                    : S_TEXT/UTF8
Codec ID/Info               : UTF-8 Plain Text
Duration                    : 1 h 39 min
Bit rate                    : 23 b/s
Count of elements           : 713
Stream size                 : 17.3 KiB (0%)
Title                       : Chinese (Simplified) [Full]
Language                    : Chinese
Default                     : No
Forced                      : No

Text #22
ID                          : 25
Format                      : UTF-8
Codec ID                    : S_TEXT/UTF8
Codec ID/Info               : UTF-8 Plain Text
Duration                    : 1 h 39 min
Bit rate                    : 23 b/s
Count of elements           : 713
Stream size                 : 17.4 KiB (0%)
Title                       : Chinese (Traditional) [Full]
Language                    : Chinese
Default                     : No
Forced                      : No

Menu
00:00:00.000                : Studio Logo
00:00:16.000                : Vials are stolen from Umbrella's laboratory, Title Sequence
00:02:48.000                : The Red Queen seals The Hive as the virus spreads
00:06:57.000                : Ms. Black tries to escape from the elevator
00:08:22.000                : Alice wakes up with amnesia
00:11:00.000                : A group of commandos break in
00:14:53.000                : Commandos escort Alice out of the mansion
00:17:21.000                : Salinas finds Spence behind a locked door
00:18:58.000                : The One tells Alice that she is an employee
00:22:07.000                : The team opens a chamber but finds nothing, The Hive
00:23:48.000                : Alice asks One about her amnesia
00:27:01.000                : The team finds suspicious containers
00:29:21.000                : The Red Queen activates the weapons system
00:34:11.000                : The Red Queen warns Alice and Kaplan
00:36:40.000                : The Red Queen is shut down
00:37:49.000                : The team encounters zombies
00:41:13.000                : Alice has a flashback
00:45:39.000                : Rain blames Chad for the disaster
00:47:00.000                : Alice fights with infected dogs, The Hive
00:50:35.000                : Matt wanders in search of something
00:51:59.000                : Matt's sister tries to bite him
00:55:36.000                : Alice decides to reactivate the Red Queen
00:57:59.000                : The Red Queen tells everyone why she locked the Hive
01:00:31.000                : Alice and the others try to escape
01:03:15.000                : Alice and the others hide from the infected
01:07:37.000                : Alice remembers that there is a cure for the virus
01:10:34.000                : Spence has a flashback and remembers the past
01:13:12.000                : Spence asks Alice to join him
01:16:14.000                : Red Queen tells Alice what to do
01:20:18.000                : Chad comes to rescue Alice and the others
01:22:18.000                : The Licker chases the survivers down
01:27:06.000                : Matt begins to mutate
01:30:14.000                : Alice wakes up in a laboratory
01:34:06.000                : End Credits












Fuente video: WEB-DL 1080p H264 1920x1080 (High@L4,AVC)
Fuente audios: WEB-DL E-AC3 2.0 a 224 kb/s
Fuente audios: WEB-DL E-AC3 5.1 a 640 kb/s
Idiomas audios: English, Español (Latinoamérica)
Formato de subtítulos: SubRip (.srt)
Idiomas subtitulos: Español (Latinoamérica)
Fuente: Amazon Prime Video

1. Resident Evil (2002)
2. Resident Evil: Apocalypse (2004)
3. Resident Evil: Extinction (2007)
4. Resident Evil: Afterlife (2010)
5. Resident Evil: Retribution (2012)
6. Resident Evil: The Final Chapter (2016)
7. Resident Evil: Welcome to Raccoon City (2021)
8. Resident Evil: Damnation
9. Resident Evil: Degenaration

10. Resident Evil: Vendetta

Todas Compradas desde la Tienda de Amazon





Enlaces de Mega y Google Drive solo disponibles para Miembros VIP

Compra tu Membresía VIP y apoya a Club-HD!

ATENCIÓN! Tenemos TODO el material de Club-HD disponible por Mega y Google Drive, enlaces 100% activos y online hasta la fecha

Llévate tus cuentas Mega PRO III gratis con tu membresía VIP!
Todos los posts vivos con links de Mega y Google Drive.
Todo el material de Club-HD desbloqueado y sin publicidad.

Click Aquí para más información.


Enlaces de Mega y Google Drive solo disponibles para Miembros VIP

Compra tu Membresía VIP y apoya a Club-HD!

ATENCIÓN! Tenemos TODO el material de Club-HD disponible por Mega y Google Drive, enlaces 100% activos y online hasta la fecha

Llévate tus cuentas Mega PRO III gratis con tu membresía VIP!
Todos los posts vivos con links de Mega y Google Drive.
Todo el material de Club-HD desbloqueado y sin publicidad.

Click Aquí para más información.


Enlaces de Mega y Google Drive solo disponibles para Miembros VIP

Compra tu Membresía VIP y apoya a Club-HD!

ATENCIÓN! Tenemos TODO el material de Club-HD disponible por Mega y Google Drive, enlaces 100% activos y online hasta la fecha

Llévate tus cuentas Mega PRO III gratis con tu membresía VIP!
Todos los posts vivos con links de Mega y Google Drive.
Todo el material de Club-HD desbloqueado y sin publicidad.

Click Aquí para más información.
 

Usuarios Que Están Viendo Este Tema (Total: 1, Miembros: 0, Invitados: 1)

Arriba