Savages (2012) UNRATED m-720p Dual Latino-Inglés [Subt. Esp-Ing] (Thriller. Drama)

Maestro Revolver

Well-known member
Miembro del Staff
Administrador
Registro
9 Ago 2012
Mensajes
3.569
Reacciones
59.353
Puntos
113

Reputation:









TÍTULO ORIGINAL: Savages
AÑO: 2012
DURACIÓN: 130 min.
PAÍS: USA
DIRECTOR: Oliver Stone
GUIÓN: Shane Salerno, Don Winslow, Oliver Stone (Novela: Don Winslow)
REPARTO: Taylor Kitsch, Blake Lively, John Travolta, Salma Hayek, Aaron Johnson, Emile Hirsch, Benicio Del Toro, Joel David Moore, Trevor Donovan, Mía Maestro, Demián Bichir, Diego Cataño, Gonzalo Menéndez, Alexander Wraith, Jonathan Patrick Moore, Antonio Jaramillo, Aaron Kunitz, Jake McLaughlin, Matt Riedy, Joaquín Cosío, Sandra Echeverría
PRODUCTORA: Ixtlan / Onda Entertainment / Relativity Media
GÉNERO: Thriller. Drama | Crimen
http://www.imdb.com/title/tt1615065/






Adaptación de una novela de Don Winslow. Dos amigos de Laguna Beach, que comparten novia, se dedican al tráfico de drogas. Un cartel mexicano secuestra a la chica y les exige como rescate todo el dinero que han ganado durante los últimos cinco años. Aunque los jóvenes se muestran dispuestos a pagar, al mismo tiempo, idean un plan para rescatar a la chica y vengarse de sus secuestradores.
























La pelicula NO tiene ninguna marca... solo colocamos el nombre de esta web en las capturas






Código:
General
Format                           : Matroska
Format version                   : Version 2
File size                        : 3.73 GiB
Duration                         : 2h 21mn
Overall bit rate                 : 3 785 Kbps
Movie name                       : www.club-hd.com
Encoded date                     : UTC 2012-11-06 03:47:23
Writing application              : mkvmerge v5.7.0 ('The Whirlwind') built on Jul  8 2012 20:08:51
Writing library                  : libebml v1.2.3 + libmatroska v1.3.0

Video
ID                               : 1
Format                           : AVC
Format/Info                      : Advanced Video Codec
Format profile                   : High@L4.1
Format settings, CABAC           : Yes
Format settings, ReFrames        : 8 frames
Codec ID                         : V_MPEG4/ISO/AVC
Duration                         : 2h 21mn
Bit rate                         : 2 695 Kbps
Width                            : 1 280 pixels
Height                           : 534 pixels
Display aspect ratio             : 2.40:1
Frame rate                       : 23.976 fps
Color space                      : YUV
Chroma subsampling               : 4:2:0
Bit depth                        : 8 bits
Scan type                        : Progressive
Bits/(Pixel*Frame)               : 0.164
Stream size                      : 2.59 GiB (69%)
Title                            : www.club-hd.com
Writing library                  : x264 core 128 r2216 198a7ea
Language                         : English
Default                          : Yes
Forced                           : No

Audio #1
ID                               : 2
Format                           : AC-3
Format/Info                      : Audio Coding 3
Mode extension                   : CM (complete main)
Codec ID                         : A_AC3
Duration                         : 2h 21mn
Bit rate mode                    : Constant
Bit rate                         : 640 Kbps
Channel(s)                       : 6 channels
Channel positions                : Front: L C R, Side: L R, LFE
Sampling rate                    : 48.0 KHz
Bit depth                        : 16 bits
Compression mode                 : Lossy
Stream size                      : 646 MiB (17%)
Title                            : www.club-hd.com  >>  Latino
Language                         : Spanish
Default                          : Yes
Forced                           : No

Audio #2
ID                               : 3
Format                           : AC-3
Format/Info                      : Audio Coding 3
Mode extension                   : CM (complete main)
Codec ID                         : A_AC3
Duration                         : 2h 21mn
Bit rate mode                    : Constant
Bit rate                         : 448 Kbps
Channel(s)                       : 6 channels
Channel positions                : Front: L C R, Side: L R, LFE
Sampling rate                    : 48.0 KHz
Bit depth                        : 16 bits
Compression mode                 : Lossy
Stream size                      : 452 MiB (12%)
Title                            : www.club-hd.com  >>  Inglés
Language                         : English
Default                          : No
Forced                           : No

Text #1
ID                               : 4
Format                           : UTF-8
Codec ID                         : S_TEXT/UTF8
Codec ID/Info                    : UTF-8 Plain Text
Title                            : Forzados
Language                         : Spanish
Default                          : Yes
Forced                           : No

Text #2
ID                               : 5
Format                           : UTF-8
Codec ID                         : S_TEXT/UTF8
Codec ID/Info                    : UTF-8 Plain Text
Language                         : Spanish
Default                          : No
Forced                           : No

Text #3
ID                               : 6
Format                           : UTF-8
Codec ID                         : S_TEXT/UTF8
Codec ID/Info                    : UTF-8 Plain Text
Language                         : English
Default                          : No
Forced                           : No

Menu
00:00:00.000                     : en:Chapter 1
00:06:42.152                     : en:Chapter 2
00:13:40.737                     : en:Chapter 3
00:20:58.215                     : en:Chapter 4
00:24:36.934                     : en:Chapter 5
00:31:40.899                     : en:Chapter 6
00:41:50.258                     : en:Chapter 7
00:48:33.869                     : en:Chapter 8
00:57:19.519                     : en:Chapter 9
01:02:04.554                     : en:Chapter 10
01:11:21.819                     : en:Chapter 11
01:19:53.747                     : en:Chapter 12
01:28:03.236                     : en:Chapter 13
01:36:29.867                     : en:Chapter 14
01:43:49.849                     : en:Chapter 15
01:48:41.348                     : en:Chapter 16
01:56:37.032                     : en:Chapter 17
02:02:58.496                     : en:Chapter 18
02:11:47.024                     : en:Chapter 19
02:16:49.910                     : en:Chapter 20










Enlaces de Mega y Fireload solo disponibles para Miembros VIP

Compra tu Membresía VIP y apoya a Club-HD!

ATENCIÓN! Tenemos TODO el material de Club-HD disponible por Mega y Fireload, enlaces 100% activos y online hasta la fecha

Llévate tus cuentas Mega PRO II gratis con tu membresía VIP!
Todos los posts vivos con links de Mega y Fireload.
Todo el material de Club-HD desbloqueado y sin publicidad.

Click Aquí para más información.




Enlaces de Mega y Fireload solo disponibles para Miembros VIP

Compra tu Membresía VIP y apoya a Club-HD!

ATENCIÓN! Tenemos TODO el material de Club-HD disponible por Mega y Fireload, enlaces 100% activos y online hasta la fecha

Llévate tus cuentas Mega PRO II gratis con tu membresía VIP!
Todos los posts vivos con links de Mega y Fireload.
Todo el material de Club-HD desbloqueado y sin publicidad.

Click Aquí para más información.


Para ver este contenido oculto, debes dar click en una de las siguientes reacciones : Like Like, Love Love, Haha Haha, Wow Wow, Sad Sad, Angry Angry

 
Última edición:

arkkangeldark

Well-known member
Registro
27 Ago 2012
Mensajes
3.445
Reacciones
576
Puntos
113
Edad
34
Ubicación
Torreon Coahuila

Reputation:

gracias revolver es una buena pelicula excelente diria yo, solo una pregunta esta es la version normal o es la UNRATED??? gracias
 

davidhdz

New member
Registro
3 Sep 2012
Mensajes
274
Reacciones
0
Puntos
0

Reputation:

Muchas Gracias.
 
Última edición por un moderador:

Yonatan

Admin
Miembro del Staff
Administrador
Registro
27 Ago 2012
Mensajes
1.768
Reacciones
3.728
Puntos
113
Edad
28
Ubicación
Chile, Sexta Región

Reputation:

Esta no la conozco a ver que tal y agregar a la lista de descarga, como siempre gracias revolver
 

Usuarios Que Están Viendo Este Tema (Total: 1, Miembros: 0, Invitados: 1)

Arriba