Scary Movie 5 (2013) 720p BDRip Dual Latino-Inglés [Subt. Esp] (Comedia)

Maestro Revolver

Well-known member
Miembro del Staff
Administrador
Registro
9 Ago 2012
Mensajes
3.567








TÍTULO ORIGINAL: Scary MoVie (Scary Movie 5)
AÑO: 2013
DURACIÓN: 85 min.
PAÍS: USA
DIRECTOR: Malcolm D. Lee
GUIÓN: David Zucker, Pat Proft
REPARTO: Ashley Tisdale, Simon Rex, Erica Ash, Kate Walsh, Anthony Anderson, Regina Hall, Kevin Hart, Molly Shannon, Heather Locklear, Craig Bierko, Lindsay Lohan, Charlie Sheen, J.P. Manoux, Snoop Dogg, Katt Williams, Terry Crews, Jerry O'Connell, Sarah Hyland, Katrina Bowden, Tyler Posey, Mac Miller, Bow Wow, Mike Tyson, Gracie Whitton, Jasmine Guy
PRODUCTORA: Dimension Films / Brad Grey Pictures / DZE
GÉNERO: Comedia | Comedia de terror. Parodia. Sobrenatural
: http://www.imdb.com/title/tt0795461/






Los felizmente casados Dan y Jody empiezan a observar algunos fenómenos extraños en su casa tras volver del hospital con su bebé, Aiden. Pero cuando el caos se apodera del trabajo de Jody como bailarina de ballet y de la carrera de Dan como investigador de monos, la pareja descubre que está siendo acosada por una presencia demoníaca. Juntos, con la ayuda de expertos cualificados y de numerosas cámaras, intentarán deshacerse del maléfico ser antes de que sea demasiado tarde.
























La pelicula NO tiene ninguna marca... solo colocamos el nombre de esta web en las capturas






Código:
General
Format                                   : Matroska
Format version                           : Version 2
File size                                : 4.05 GiB
Duration                                 : 1h 28mn
Overall bit rate                         : 6 579 Kbps
Movie name                               : www.club-hd.com
Encoded date                             : UTC 2013-08-10 00:18:46
Writing application                      : mkvmerge v5.7.0 ('The Whirlwind') built on Jul  8 2012 20:08:51
Writing library                          : libebml v1.2.3 + libmatroska v1.3.0

Video
ID                                       : 1
Format                                   : AVC
Format/Info                              : Advanced Video Codec
Format profile                           : High@L4.1
Format settings, CABAC                   : Yes
Format settings, ReFrames                : 5 frames
Codec ID                                 : V_MPEG4/ISO/AVC
Duration                                 : 1h 28mn
Bit rate                                 : 5 587 Kbps
Width                                    : 1 280 pixels
Height                                   : 720 pixels
Display aspect ratio                     : 16:9
Frame rate mode                          : Constant
Frame rate                               : 23.976 fps
Color space                              : YUV
Chroma subsampling                       : 4:2:0
Bit depth                                : 8 bits
Scan type                                : Progressive
Bits/(Pixel*Frame)                       : 0.253
Stream size                              : 3.34 GiB (82%)
Title                                    : www.club-hd.com
Writing library                          : x264 core 133 r2334 a3ac64b
Language                                 : English
Default                                  : Yes
Forced                                   : No

Audio #1
ID                                       : 2
Format                                   : AC-3
Format/Info                              : Audio Coding 3
Mode extension                           : CM (complete main)
Format settings, Endianness              : Big
Codec ID                                 : A_AC3
Duration                                 : 1h 28mn
Bit rate mode                            : Constant
Bit rate                                 : 384 Kbps
Channel(s)                               : 6 channels
Channel positions                        : Front: L C R, Side: L R, LFE
Sampling rate                            : 44.1 KHz
Bit depth                                : 16 bits
Compression mode                         : Lossy
Stream size                              : 242 MiB (6%)
Title                                    : www.club-hd.com  >>  Latino
Language                                 : Spanish
Default                                  : Yes
Forced                                   : No

Audio #2
ID                                       : 3
Format                                   : AC-3
Format/Info                              : Audio Coding 3
Mode extension                           : CM (complete main)
Format settings, Endianness              : Big
Codec ID                                 : A_AC3
Duration                                 : 1h 28mn
Bit rate mode                            : Constant
Bit rate                                 : 640 Kbps
Channel(s)                               : 6 channels
Channel positions                        : Front: L C R, Side: L R, LFE
Sampling rate                            : 48.0 KHz
Bit depth                                : 16 bits
Compression mode                         : Lossy
Stream size                              : 403 MiB (10%)
Title                                    : www.club-hd.com  >>  Inglés
Language                                 : English
Default                                  : No
Forced                                   : No

Text
ID                                       : 4
Format                                   : UTF-8
Codec ID                                 : S_TEXT/UTF8
Codec ID/Info                            : UTF-8 Plain Text
Language                                 : Spanish
Default                                  : No
Forced                                   : No

Menu
00:00:00.000                             : en:00:00:00.000
00:04:50.707                             : en:00:04:50.707
00:09:22.228                             : en:00:09:22.228
00:15:52.785                             : en:00:15:52.785
00:23:17.479                             : en:00:23:17.479
00:30:28.493                             : en:00:30:28.493
00:37:44.804                             : en:00:37:44.804
00:44:14.277                             : en:00:44:14.277
00:50:41.830                             : en:00:50:41.830
00:58:58.577                             : en:00:58:58.577
01:03:23.091                             : en:01:03:23.091
01:09:11.689                             : en:01:09:11.689
01:13:14.974                             : en:01:13:14.974
01:21:06.487                             : en:01:21:06.487








Enlaces de Mega y Google Drive solo disponibles para Miembros VIP

Compra tu Membresía VIP y apoya a Club-HD!

ATENCIÓN! Tenemos TODO el material de Club-HD disponible por Mega y Google Drive, enlaces 100% activos y online hasta la fecha

Llévate tus cuentas Mega PRO III gratis con tu membresía VIP!
Todos los posts vivos con links de Mega y Google Drive.
Todo el material de Club-HD desbloqueado y sin publicidad.

Click Aquí para más información.


Para ver este contenido oculto, debes dar click en una de las siguientes reacciones : Like Like, Love Love, Haha Haha, Wow Wow, Sad Sad, Angry Angry



 
Última edición por un moderador:

Usuarios Que Están Viendo Este Tema (Total: 1, Miembros: 0, Invitados: 1)

Quién Leyó Este Tema (Total Miembros: 3)

Arriba