Schindler's List (1993) 720p BDRip Dual Latino-Inglés [Subt. Esp] (Drama)

Maestro Revolver

Well-known member
Miembro del Staff
Administrador
Registro
9 Ago 2012
Mensajes
3.569
Reacciones
59.341
Puntos
113

Reputation:









TÍTULO ORIGINAL: Schindler's List
AÑO: 1993
DURACIÓN: 195 min.
PAÍS: USA
DIRECTOR: Steven Spielberg
GUIÓN: Steven Zaillian
REPARTO: Liam Neeson, Ben Kingsley, Ralph Fiennes, Caroline Goodall, Jonathan Sagall, Embeth Davidtz, Norbert Weisser, Martin S. Bergmann
PRODUCTORA: Universal Pictures / Amblin Entertainment
GÉNERO: Drama | Nazismo. Holocausto. Basado en hechos reales. II Guerra Mundial
: http://www.imdb.com/title/tt0108052/

PREMIOS: 1994: Premios Cesar: Nominada a la Mejor película extranjera
1993: 7 Oscars: Película, director, guión, montaje, música, dirección artística, fotografía
1993: 3 Globos de Oro: Película: drama, guión, director. 6 nominaciones
1993: 7 Premios BAFTA, incluyendo mejor película y director. 13 nominaciones
1993: National Board of Review: Mejor película
1993: Círculo de críticos de Nueva York: Película, Actor Secundario (Fiennes), Fotografía
1993: 6 premios Asociación de Críticos de Chicago, incluyendo Película, Director y Actor






Segunda Guerra Mundial (1939-1945). Oskar Schindler (Liam Neeson), un hombre de enorme astucia y talento para las relaciones públicas, organiza un ambicioso plan para ganarse la simpatía de los nazis. Después de la invasión de Polonia por los alemanes (1939), consigue, gracias a sus relaciones con los nazis, la propiedad de una fábrica de Cracovia. Allí emplea a cientos de operarios judíos, cuya explotación le hace prosperar rápidamente. Su gerente (Ben Kingsley), también judío, es el verdadero director en la sombra, pues Schindler carece completamente de conocimientos para dirigir una empresa.
























La pelicula NO tiene ninguna marca... solo colocamos el nombre de esta web en las capturas






Código:
General
Format                                   : Matroska
Format version                           : Version 2
File size                                : 5.87 GiB
Duration                                 : 3h 15mn
Overall bit rate                         : 4 306 Kbps
Movie name                               : www.club-hd.com
Encoded date                             : UTC 2013-03-29 20:23:32
Writing application                      : mkvmerge v5.7.0 ('The Whirlwind') built on Jul  8 2012 20:08:51
Writing library                          : libebml v1.2.3 + libmatroska v1.3.0

Video
ID                                       : 1
Format                                   : AVC
Format/Info                              : Advanced Video Codec
Format profile                           : High@L4.1
Format settings, CABAC                   : Yes
Format settings, ReFrames                : 9 frames
Codec ID                                 : V_MPEG4/ISO/AVC
Duration                                 : 3h 15mn
Bit rate                                 : 3 026 Kbps
Width                                    : 1 280 pixels
Height                                   : 694 pixels
Display aspect ratio                     : 1.85:1
Frame rate mode                          : Constant
Frame rate                               : 23.976 fps
Color space                              : YUV
Chroma subsampling                       : 4:2:0
Bit depth                                : 8 bits
Scan type                                : Progressive
Bits/(Pixel*Frame)                       : 0.142
Stream size                              : 4.01 GiB (68%)
Title                                    : www.club-hd.com
Writing library                          : x264 core 129 r2245 bc13772
Language                                 : English
Default                                  : Yes
Forced                                   : No

Audio #1
ID                                       : 2
Format                                   : AC-3
Format/Info                              : Audio Coding 3
Mode extension                           : CM (complete main)
Format settings, Endianness              : Big
Codec ID                                 : A_AC3
Duration                                 : 3h 15mn
Bit rate mode                            : Constant
Bit rate                                 : 640 Kbps
Channel(s)                               : 6 channels
Channel positions                        : Front: L C R, Side: L R, LFE
Sampling rate                            : 48.0 KHz
Bit depth                                : 16 bits
Compression mode                         : Lossy
Delay relative to video                  : 200ms
Stream size                              : 894 MiB (15%)
Title                                    : www.club-hd.com  >>  Latino
Language                                 : Spanish
Default                                  : Yes
Forced                                   : No

Audio #2
ID                                       : 3
Format                                   : AC-3
Format/Info                              : Audio Coding 3
Mode extension                           : CM (complete main)
Format settings, Endianness              : Big
Codec ID                                 : A_AC3
Duration                                 : 3h 15mn
Bit rate mode                            : Constant
Bit rate                                 : 640 Kbps
Channel(s)                               : 6 channels
Channel positions                        : Front: L C R, Side: L R, LFE
Sampling rate                            : 48.0 KHz
Bit depth                                : 16 bits
Compression mode                         : Lossy
Stream size                              : 894 MiB (15%)
Title                                    : www.club-hd.com  >>  Inglés
Language                                 : English
Default                                  : No
Forced                                   : No

Text #1
ID                                       : 4
Format                                   : UTF-8
Codec ID                                 : S_TEXT/UTF8
Codec ID/Info                            : UTF-8 Plain Text
Title                                    : Forzados
Language                                 : Spanish
Default                                  : Yes
Forced                                   : No

Text #2
ID                                       : 5
Format                                   : UTF-8
Codec ID                                 : S_TEXT/UTF8
Codec ID/Info                            : UTF-8 Plain Text
Language                                 : Spanish
Default                                  : No
Forced                                   : No

Menu
00:00:00.000                             : en:Chapter 1
00:03:23.161                             : en:Chapter 2
00:10:12.153                             : en:Chapter 3
00:14:51.307                             : en:Chapter 4
00:17:28.714                             : en:Chapter 5
00:21:42.384                             : en:Chapter 6
00:23:48.010                             : en:Chapter 7
00:30:37.669                             : en:Chapter 8
00:34:23.728                             : en:Chapter 9
00:41:43.751                             : en:Chapter 10
00:44:16.737                             : en:Chapter 11
00:50:55.761                             : en:Chapter 12
00:55:09.431                             : en:Chapter 13
00:56:44.860                             : en:Chapter 14
01:13:44.754                             : en:Chapter 15
01:17:05.704                             : en:Chapter 16
01:26:02.115                             : en:Chapter 17
01:29:26.319                             : en:Chapter 18
01:32:01.182                             : en:Chapter 19
01:38:36.869                             : en:Chapter 20
01:43:19.777                             : en:Chapter 21
01:49:36.612                             : en:Chapter 22
01:55:45.981                             : en:Chapter 23
01:58:42.824                             : en:Chapter 24
02:02:59.789                             : en:Chapter 25
02:06:49.310                             : en:Chapter 26
02:10:11.637                             : en:Chapter 27
02:13:44.725                             : en:Chapter 28
02:18:21.376                             : en:Chapter 29
02:26:46.506                             : en:Chapter 30
02:34:15.621                             : en:Chapter 31
02:38:48.018                             : en:Chapter 32
02:41:15.416                             : en:Chapter 33
02:46:21.763                             : en:Chapter 34
02:48:12.332                             : en:Chapter 35
02:50:23.171                             : en:Chapter 36
02:55:28.393                             : en:Chapter 37
03:01:51.359                             : en:Chapter 38
03:05:06.721                             : en:Chapter 39
03:08:51.278                             : en:Chapter 40











Enlaces de Mega y Fireload solo disponibles para Miembros VIP

Compra tu Membresía VIP y apoya a Club-HD!

ATENCIÓN! Tenemos TODO el material de Club-HD disponible por Mega y Fireload, enlaces 100% activos y online hasta la fecha

Llévate tus cuentas Mega PRO II gratis con tu membresía VIP!
Todos los posts vivos con links de Mega y Fireload.
Todo el material de Club-HD desbloqueado y sin publicidad.

Click Aquí para más información.


Enlaces de Mega y Fireload solo disponibles para Miembros VIP

Compra tu Membresía VIP y apoya a Club-HD!

ATENCIÓN! Tenemos TODO el material de Club-HD disponible por Mega y Fireload, enlaces 100% activos y online hasta la fecha

Llévate tus cuentas Mega PRO II gratis con tu membresía VIP!
Todos los posts vivos con links de Mega y Fireload.
Todo el material de Club-HD desbloqueado y sin publicidad.

Click Aquí para más información.



Para ver este contenido oculto, debes dar click en una de las siguientes reacciones : Like Like, Love Love, Haha Haha, Wow Wow, Sad Sad, Angry Angry

 
Última edición:

edward1080

Well-known member
Registro
23 Nov 2012
Mensajes
1.013
Reacciones
137
Puntos
63
Edad
34

Reputation:

Ya debería estar acostumbrado, pero la verdad es que cada día me sorprendes Revolver... Esta es una excelente película que gráfica muy bien parte de la historia y lo que se vivió entonces, gran aporte amigo! gracias por compartir.. un saludo! :aplausos:
 

willy182

New member
Registro
29 Ago 2012
Mensajes
276
Reacciones
5
Puntos
0

Reputation:

Gran película. Con ésta resolución creo que será suficiente.
Gracias
 

Usuarios Que Están Viendo Este Tema (Total: 1, Miembros: 0, Invitados: 1)

Arriba