Se7en (1995) REMASTERED m-720p Dual Latino-Inglés [Subt. Esp] (Thriller. Intriga)

Maestro Revolver

Well-known member
Miembro del Staff
Administrador
Registro
9 Ago 2012
Mensajes
3.569
Reacciones
59.346
Puntos
113

Reputation:









TÍTULO ORIGINAL: Seven (Se7en)
AÑO: 1995
DURACIÓN: 127 min.
PAÍS: USA
DIRECTOR: David Fincher
GUIÓN: Andrew Kevin Walker
REPARTO: Brad Pitt, Morgan Freeman, Gwyneth Paltrow, Kevin Spacey, John C. McGinley, Richard Roundtree, R. Lee Ermey, Leland Orser, Richard Schiff, Julie Araskog, Mark Boone Junior, Daniel Zacapa, Richard Portnow, Bob Stephenson, John Cassini, Lennie Loftin, Reg E. Cathey
PRODUCTORA: New Line Cinema / Arnold Kopelson Production
GÉNERO: Thriller. Intriga | Crimen. Policíaco. Asesinos en serie. Película de culto
: http://www.imdb.com/title/tt0114369/

PREMIOS: 1995: Nominada al Oscar: Mejor montaje
1995: Nominada Premios BAFTA: Mejor guión original
1995: National Board of Review: Mejor actor de reparto (Kevin Spacey)
1995: Círculo de críticos de nueva York: Mejor actor de reparto (Kevin Spacey)






El veterano teniente Somerset (Morgan Freeman), del departamento de homicidios, está a punto de jubilarse y ser reemplazado por el ambicioso e impulsivo detective David Mills (Brad Pitt). Ambos tendrán que colaborar en la resolución de una serie de asesinatos cometidos por un psicópata que toma como base la relación de los siete pecados capitales: gula, pereza, soberbia, avaricia, envidia, lujuria e ira. Los cuerpos de las víctimas, sobre los que el asesino se ensaña de manera impúdica, se convertirán para los policías en un enigma que les obligará a viajar al horror y la barbarie más absoluta.
























La pelicula NO tiene ninguna marca... solo colocamos el nombre de esta web en las capturas






Código:
General
Format                                   : Matroska
Format version                           : Version 2
File size                                : 2.90 GiB
Duration                                 : 2h 6mn
Overall bit rate                         : 3 273 Kbps
Movie name                               : www.club-hd.com
Encoded date                             : UTC 2013-02-24 16:55:36
Writing application                      : mkvmerge v5.7.0 ('The Whirlwind') built on Jul  8 2012 20:08:51
Writing library                          : libebml v1.2.3 + libmatroska v1.3.0

Video
ID                                       : 1
Format                                   : AVC
Format/Info                              : Advanced Video Codec
Format profile                           : High@L4.1
Format settings, CABAC                   : Yes
Format settings, ReFrames                : 5 frames
Codec ID                                 : V_MPEG4/ISO/AVC
Duration                                 : 2h 6mn
Bit rate                                 : 2 568 Kbps
Width                                    : 1 280 pixels
Height                                   : 536 pixels
Display aspect ratio                     : 2.40:1
Frame rate mode                          : Constant
Frame rate                               : 23.976 fps
Color space                              : YUV
Chroma subsampling                       : 4:2:0
Bit depth                                : 8 bits
Scan type                                : Progressive
Bits/(Pixel*Frame)                       : 0.156
Stream size                              : 2.27 GiB (78%)
Title                                    : www.club-hd.com
Writing library                          : x264 core 88 r1471 1144615
Language                                 : English
Default                                  : Yes
Forced                                   : No

Audio #1
ID                                       : 2
Format                                   : AC-3
Format/Info                              : Audio Coding 3
Mode extension                           : CM (complete main)
Format settings, Endianness              : Big
Codec ID                                 : A_AC3
Duration                                 : 2h 6mn
Bit rate mode                            : Constant
Bit rate                                 : 192 Kbps
Channel(s)                               : 2 channels
Channel positions                        : Front: L R
Sampling rate                            : 48.0 KHz
Bit depth                                : 16 bits
Compression mode                         : Lossy
Delay relative to video                  : 1s 100ms
Stream size                              : 174 MiB (6%)
Title                                    : www.club-hd.com  >>  Latino
Language                                 : Spanish
Default                                  : Yes
Forced                                   : No

Audio #2
ID                                       : 3
Format                                   : AC-3
Format/Info                              : Audio Coding 3
Mode extension                           : CM (complete main)
Format settings, Endianness              : Big
Codec ID                                 : A_AC3
Duration                                 : 2h 6mn
Bit rate mode                            : Constant
Bit rate                                 : 448 Kbps
Channel(s)                               : 6 channels
Channel positions                        : Front: L C R, Side: L R, LFE
Sampling rate                            : 48.0 KHz
Bit depth                                : 16 bits
Compression mode                         : Lossy
Stream size                              : 406 MiB (14%)
Title                                    : www.club-hd.com  >>  Inglés
Language                                 : English
Default                                  : No
Forced                                   : No

Text
ID                                       : 4
Format                                   : UTF-8
Codec ID                                 : S_TEXT/UTF8
Codec ID/Info                            : UTF-8 Plain Text
Language                                 : Spanish
Default                                  : No
Forced                                   : No











Enlaces de Mega y Fireload solo disponibles para Miembros VIP

Compra tu Membresía VIP y apoya a Club-HD!

ATENCIÓN! Tenemos TODO el material de Club-HD disponible por Mega y Fireload, enlaces 100% activos y online hasta la fecha

Llévate tus cuentas Mega PRO II gratis con tu membresía VIP!
Todos los posts vivos con links de Mega y Fireload.
Todo el material de Club-HD desbloqueado y sin publicidad.

Click Aquí para más información.



Enlaces de Mega y Fireload solo disponibles para Miembros VIP

Compra tu Membresía VIP y apoya a Club-HD!

ATENCIÓN! Tenemos TODO el material de Club-HD disponible por Mega y Fireload, enlaces 100% activos y online hasta la fecha

Llévate tus cuentas Mega PRO II gratis con tu membresía VIP!
Todos los posts vivos con links de Mega y Fireload.
Todo el material de Club-HD desbloqueado y sin publicidad.

Click Aquí para más información.



Enlaces de Mega y Fireload solo disponibles para Miembros VIP

Compra tu Membresía VIP y apoya a Club-HD!

ATENCIÓN! Tenemos TODO el material de Club-HD disponible por Mega y Fireload, enlaces 100% activos y online hasta la fecha

Llévate tus cuentas Mega PRO II gratis con tu membresía VIP!
Todos los posts vivos con links de Mega y Fireload.
Todo el material de Club-HD desbloqueado y sin publicidad.

Click Aquí para más información.



Para ver este contenido oculto, debes dar click en una de las siguientes reacciones : Like Like, Love Love, Haha Haha, Wow Wow, Sad Sad, Angry Angry
 
Última edición:

dimevaquero

New member
Registro
13 Sep 2012
Mensajes
207
Reacciones
132
Puntos
0
Edad
33

Reputation:

muchas gracias man, habia pedido esta en la seccion de peticiones, mil gracias, se agradece mucho el esfuerzo, esta pelicula es excelente
 

Pedrum

The Buckminster
Registro
28 Ago 2012
Mensajes
1.092
Reacciones
1.546
Puntos
113
Ubicación
Bahia Blanca

Reputation:

Pero que buena película Revo, para la colección definitivamente...

Muchísimas gracias! victory
 

henryxz

Well-known member
Registro
28 Ago 2012
Mensajes
1.097
Reacciones
56
Puntos
48
Edad
45
Ubicación
COAHUILA MEXICO

Reputation:

años sin verla, y mi actor favorito, morgan freeman, no se como escribir tanto agradecimiento :)
 

JOVALD

New member
Registro
28 Ago 2012
Mensajes
30
Reacciones
1
Puntos
0
Edad
53

Reputation:

gracias mennnnnnnnnnnn, buenaza cheliiiiiiiiii...
 

Usuarios Que Están Viendo Este Tema (Total: 1, Miembros: 0, Invitados: 1)

Arriba