Seeking a Friend for the End of the World (2012) m-720p Dual Latino-Inglés [Subt. Esp-Ing] (Romance. Comedia)

Maestro Revolver

Well-known member
Miembro del Staff
Administrador
Registro
9 Ago 2012
Mensajes
3.569
Reacciones
59.361
Puntos
113

Reputation:









TÍTULO ORIGINAL: Seeking a Friend for the End of the World
AÑO: 2012
DURACIÓN: 101 min.
PAÍS: USA
DIRECTOR: Lorene Scafaria
GUIÓN: Lorene Scafaria
REPARTO: Keira Knightley, Steve Carell, Adam Brody, William Petersen, Rob Corddry, Derek Luke, Patton Oswalt, Gillian Jacobs, Natalie Gal, Connie Britton, Melanie Lynskey, Martin Sheen
PRODUCTORA: Anonymous Content / Indian Paintbrush / Mandate Pictures
GÉNERO: Romance. Comedia. Fantástico
http://www.imdb.com/title/tt1307068/





Un hombre (Carell), abandonado por su mujer la víspera de la caída de un meteorito que destruirá la Tierra, decide buscar a su novia de la adolescencia y para ello cuenta con la ayuda de su joven vecina (Knightley).
























La pelicula NO tiene ninguna marca... solo colocamos el nombre de esta web en las capturas






Código:
General
Format                           : Matroska
Format version                   : Version 2
File size                        : 2.52 GiB
Duration                         : 1h 41mn
Overall bit rate                 : 3 568 Kbps
Movie name                       : www.club-hd.com
Encoded date                     : UTC 2012-10-12 23:21:03
Writing application              : mkvmerge v5.7.0 ('The Whirlwind') built on Jul  8 2012 20:08:51
Writing library                  : libebml v1.2.3 + libmatroska v1.3.0

Video
ID                               : 1
Format                           : AVC
Format/Info                      : Advanced Video Codec
Format profile                   : High@L4.1
Format settings, CABAC           : Yes
Format settings, ReFrames        : 8 frames
Codec ID                         : V_MPEG4/ISO/AVC
Duration                         : 1h 41mn
Bit rate                         : 2 670 Kbps
Width                            : 1 280 pixels
Height                           : 546 pixels
Display aspect ratio             : 2.35:1
Frame rate                       : 23.976 fps
Color space                      : YUV
Chroma subsampling               : 4:2:0
Bit depth                        : 8 bits
Scan type                        : Progressive
Bits/(Pixel*Frame)               : 0.159
Stream size                      : 1.84 GiB (73%)
Title                            : www.club-hd.com
Writing library                  : x264 core 128 r2216 198a7ea
Language                         : English
Default                          : Yes
Forced                           : No

Audio #1
ID                               : 2
Format                           : AC-3
Format/Info                      : Audio Coding 3
Mode extension                   : CM (complete main)
Codec ID                         : A_AC3
Duration                         : 1h 41mn
Bit rate mode                    : Constant
Bit rate                         : 448 Kbps
Channel(s)                       : 6 channels
Channel positions                : Front: L C R, Side: L R, LFE
Sampling rate                    : 48.0 KHz
Bit depth                        : 16 bits
Compression mode                 : Lossy
Stream size                      : 324 MiB (13%)
Title                            : www.club-hd.com  >>  Latino
Language                         : Spanish
Default                          : Yes
Forced                           : No

Audio #2
ID                               : 3
Format                           : AC-3
Format/Info                      : Audio Coding 3
Mode extension                   : CM (complete main)
Codec ID                         : A_AC3
Duration                         : 1h 41mn
Bit rate mode                    : Constant
Bit rate                         : 448 Kbps
Channel(s)                       : 6 channels
Channel positions                : Front: L C R, Side: L R, LFE
Sampling rate                    : 48.0 KHz
Bit depth                        : 16 bits
Compression mode                 : Lossy
Stream size                      : 324 MiB (13%)
Title                            : www.club-hd.com  >>  Inglés
Language                         : English
Default                          : No
Forced                           : No

Text #1
ID                               : 4
Format                           : UTF-8
Codec ID                         : S_TEXT/UTF8
Codec ID/Info                    : UTF-8 Plain Text
Title                            : Forzados
Language                         : Spanish
Default                          : Yes
Forced                           : No

Text #2
ID                               : 5
Format                           : UTF-8
Codec ID                         : S_TEXT/UTF8
Codec ID/Info                    : UTF-8 Plain Text
Language                         : Spanish
Default                          : No
Forced                           : No

Text #3
ID                               : 6
Format                           : UTF-8
Codec ID                         : S_TEXT/UTF8
Codec ID/Info                    : UTF-8 Plain Text
Language                         : English
Default                          : No
Forced                           : No

Menu
00:00:00.000                     : en:Chapter 1
00:04:28.018                     : en:Chapter 2
00:10:30.547                     : en:Chapter 3
00:16:37.330                     : en:Chapter 4
00:21:35.044                     : en:Chapter 5
00:24:58.080                     : en:Chapter 6
00:31:22.589                     : en:Chapter 7
00:35:11.401                     : en:Chapter 8
00:40:37.685                     : en:Chapter 9
00:45:17.840                     : en:Chapter 10
00:50:00.623                     : en:Chapter 11
00:54:46.700                     : en:Chapter 12
01:01:06.413                     : en:Chapter 13
01:05:32.011                     : en:Chapter 14
01:13:14.181                     : en:Chapter 15
01:17:37.611                     : en:Chapter 16
01:21:50.280                     : en:Chapter 17
01:25:44.890                     : en:Chapter 18
01:28:24.966                     : en:Chapter 19
01:33:57.090                     : en:Chapter 20










Enlaces de Mega y Fireload solo disponibles para Miembros VIP

Compra tu Membresía VIP y apoya a Club-HD!

ATENCIÓN! Tenemos TODO el material de Club-HD disponible por Mega y Fireload, enlaces 100% activos y online hasta la fecha

Llévate tus cuentas Mega PRO II gratis con tu membresía VIP!
Todos los posts vivos con links de Mega y Fireload.
Todo el material de Club-HD desbloqueado y sin publicidad.

Click Aquí para más información.




Enlaces de Mega y Fireload solo disponibles para Miembros VIP

Compra tu Membresía VIP y apoya a Club-HD!

ATENCIÓN! Tenemos TODO el material de Club-HD disponible por Mega y Fireload, enlaces 100% activos y online hasta la fecha

Llévate tus cuentas Mega PRO II gratis con tu membresía VIP!
Todos los posts vivos con links de Mega y Fireload.
Todo el material de Club-HD desbloqueado y sin publicidad.

Click Aquí para más información.



Para ver este contenido oculto, debes dar click en una de las siguientes reacciones : Like Like, Love Love, Haha Haha, Wow Wow, Sad Sad, Angry Angry
 
Última edición:

Dracarys

Well-known member
Miembro del Staff
Súper Moderador
Uploader
Colaborador
Miembro VIP
Registro
29 Ago 2012
Mensajes
768
Reacciones
8.198
Puntos
93
Ubicación
Chile

Reputation:

Descargando :pulgar2:
 
Última edición:

Usuarios Que Están Viendo Este Tema (Total: 1, Miembros: 0, Invitados: 1)

Arriba