Serendipity (2001) m-1080p Dual Latino-Inglés [Subt. Esp] (Romance. Comedia)

Maestro Revolver

Well-known member
Miembro del Staff
Administrador
Registro
9 Ago 2012
Mensajes
3.569
Reacciones
59.354
Puntos
113

Reputation:









TÍTULO ORIGINAL: Serendipity
AÑO: 2001
DURACIÓN: 87 min.
PAÍS: USA
DIRECTOR: Peter Chelsom
GUIÓN: Marc Klein
REPARTO: John Cusack, Kate Beckinsale, Jeremy Piven, Bridget Moynahan, John Corbett, Molly Shannon, Eugene Levy, David Sparrow, Lucy Gordon, Marcia Bennett
PRODUCTORA: Miramax / Alliance Atlantis Communications / Tapestry Films
GÉNERO: Romance. Comedia | Comedia romántica
: http://www.imdb.com/title/tt0240890/






Jonathan Tragar y Sara Thomas se conocen casualmente una Navidad, de compras por Nueva York. A pesar de que tienen pareja, ambos mantienen un romántico encuentro. Jonathan desea continuar con la relación, pero Sara no se atreve. Acuerdan darse los teléfonos en un billete -con el que pagan una compra- y un libro -que ella vende en una tienda de segunda mano-, y dejar pasar el tiempo para ver qué sucede. Diez años después...
























La pelicula NO tiene ninguna marca... solo colocamos el nombre de esta web en las capturas






Código:
General
Format                                   : Matroska
Format version                           : Version 2
File size                                : 3.42 GiB
Duration                                 : 1h 30mn
Overall bit rate                         : 5 382 Kbps
Movie name                               : www.club-hd.com
Encoded date                             : UTC 2013-04-07 05:41:38
Writing application                      : mkvmerge v5.7.0 ('The Whirlwind') built on Jul  8 2012 20:08:51
Writing library                          : libebml v1.2.3 + libmatroska v1.3.0

Video
ID                                       : 1
Format                                   : AVC
Format/Info                              : Advanced Video Codec
Format profile                           : Main@L4.0
Format settings, CABAC                   : Yes
Format settings, ReFrames                : 4 frames
Codec ID                                 : V_MPEG4/ISO/AVC
Duration                                 : 1h 30mn
Bit rate                                 : 4 600 Kbps
Width                                    : 1 920 pixels
Height                                   : 1 080 pixels
Display aspect ratio                     : 16:9
Frame rate mode                          : Constant
Frame rate                               : 23.976 fps
Color space                              : YUV
Chroma subsampling                       : 4:2:0
Bit depth                                : 8 bits
Scan type                                : Progressive
Bits/(Pixel*Frame)                       : 0.093
Stream size                              : 2.82 GiB (83%)
Title                                    : www.club-hd.com
Writing library                          : x264 core 112
Language                                 : English
Default                                  : Yes
Forced                                   : No
Color primaries                          : BT.709
Transfer characteristics                 : BT.709
Matrix coefficients                      : BT.709

Audio #1
ID                                       : 2
Format                                   : AC-3
Format/Info                              : Audio Coding 3
Mode extension                           : CM (complete main)
Format settings, Endianness              : Big
Codec ID                                 : A_AC3
Duration                                 : 1h 30mn
Bit rate mode                            : Constant
Bit rate                                 : 192 Kbps
Channel(s)                               : 2 channels
Channel positions                        : Front: L R
Sampling rate                            : 48.0 KHz
Bit depth                                : 16 bits
Compression mode                         : Lossy
Stream size                              : 125 MiB (4%)
Title                                    : www.club-hd.com  >>  Latino
Language                                 : Spanish
Default                                  : Yes
Forced                                   : No

Audio #2
ID                                       : 3
Format                                   : AC-3
Format/Info                              : Audio Coding 3
Mode extension                           : CM (complete main)
Format settings, Endianness              : Big
Codec ID                                 : A_AC3
Duration                                 : 1h 30mn
Bit rate mode                            : Constant
Bit rate                                 : 640 Kbps
Channel(s)                               : 6 channels
Channel positions                        : Front: L C R, Side: L R, LFE
Sampling rate                            : 48.0 KHz
Bit depth                                : 16 bits
Compression mode                         : Lossy
Stream size                              : 416 MiB (12%)
Title                                    : www.club-hd.com  >>  Inglés
Language                                 : English
Default                                  : No
Forced                                   : No

Text
ID                                       : 4
Format                                   : UTF-8
Codec ID                                 : S_TEXT/UTF8
Codec ID/Info                            : UTF-8 Plain Text
Language                                 : Spanish
Default                                  : No
Forced                                   : No

Menu
00:00:00.000                             : en:Chapter 1
00:08:37.433                             : en:Chapter 2
00:12:00.761                             : en:Chapter 3
00:17:52.654                             : en:Chapter 4
00:22:34.686                             : en:Chapter 5
00:26:37.220                             : en:Chapter 6
00:32:18.269                             : en:Chapter 7
00:36:09.083                             : en:Chapter 8
00:39:24.987                             : en:Chapter 9
00:42:46.397                             : en:Chapter 10
00:49:38.225                             : en:Chapter 11
00:59:31.109                             : en:Chapter 12
01:07:54.570                             : en:Chapter 13
01:11:50.180                             : en:Chapter 14
01:16:14.403                             : en:Chapter 15
01:25:38.424                             : en:Chapter 16








Enlaces de Mega y Fireload solo disponibles para Miembros VIP

Compra tu Membresía VIP y apoya a Club-HD!

ATENCIÓN! Tenemos TODO el material de Club-HD disponible por Mega y Fireload, enlaces 100% activos y online hasta la fecha

Llévate tus cuentas Mega PRO II gratis con tu membresía VIP!
Todos los posts vivos con links de Mega y Fireload.
Todo el material de Club-HD desbloqueado y sin publicidad.

Click Aquí para más información.



Enlaces de Mega y Fireload solo disponibles para Miembros VIP

Compra tu Membresía VIP y apoya a Club-HD!

ATENCIÓN! Tenemos TODO el material de Club-HD disponible por Mega y Fireload, enlaces 100% activos y online hasta la fecha

Llévate tus cuentas Mega PRO II gratis con tu membresía VIP!
Todos los posts vivos con links de Mega y Fireload.
Todo el material de Club-HD desbloqueado y sin publicidad.

Click Aquí para más información.



Para ver este contenido oculto, debes dar click en una de las siguientes reacciones : Like Like, Love Love, Haha Haha, Wow Wow, Sad Sad, Angry Angry



Para ver este contenido oculto, debes dar click en una de las siguientes reacciones : Like Like, Love Love, Haha Haha, Wow Wow, Sad Sad, Angry Angry



Para ver este contenido oculto, debes dar click en una de las siguientes reacciones : Like Like, Love Love, Haha Haha, Wow Wow, Sad Sad, Angry Angry
 
Última edición:

Mate78

Ladron de mi cerebro
Miembro del Staff
Súper Moderador
Registro
27 Ago 2012
Mensajes
1.235
Reacciones
918
Puntos
113

Reputation:

:OHHH::OHHH::OHHH: jamas escuche de esta peli , gracias Bestia , siempre con lo mejor y la mejor calidad !!!! LA CALIDAD QUE TUS OJOS MERECEN !!!!!
 

matheoz

New member
Registro
29 Ago 2012
Mensajes
176
Reacciones
4
Puntos
0

Reputation:

Gracias yo batallando buscándola y aquí esta jeje Muchas Gracias Tb_up3
 

zacygal

Well-known member
Registro
3 Sep 2012
Mensajes
1.515
Reacciones
1.536
Puntos
113
Edad
49

Reputation:

Gracias, que buena película romántica ...
 

zaaven

Member
Registro
16 Sep 2012
Mensajes
54
Reacciones
1
Puntos
8

Reputation:

que buena pelicula para verla en tu cuarto, mientras afuera llueve :DDD
 

MorlanGilmour

Active member
Registro
11 Sep 2012
Mensajes
472
Reacciones
99
Puntos
28
Ubicación
Mexico

Reputation:

TSTSTST perfecta para este domingo lluvioso muchas gracias R21 como siempre con lo mejor de lo mejor
 

sharklui

Well-known member
Miembro VIP
Registro
28 Ago 2012
Mensajes
1.026
Reacciones
271
Puntos
83
Ubicación
The Matrix

Reputation:

:aplausos:

Que bien revol, la hermosa Kate Beckinsale y en 1080, no se diga mas y para la lista de descargas !!

:dplgar:
 

Nosferatu

Well-known member
Súper Moderador
Registro
31 Ago 2012
Mensajes
2.275
Reacciones
1.362
Puntos
113
Edad
44
Ubicación
Welcome to Hell!!

Reputation:

Bueno esta no la he visto, veremos a ver que tal.:aplausos::aplausos:

Gracias Revolver21!!
 

Usuarios Que Están Viendo Este Tema (Total: 1, Miembros: 0, Invitados: 1)

Arriba