Shooter (2007) m-720p Dual Latino-Inglés [Subt. Esp-Ing] (Acción. Thriller)

Maestro Revolver

Well-known member
Miembro del Staff
Administrador
Registro
9 Ago 2012
Mensajes
3.567

Rep:









TÍTULO ORIGINAL: Shooter
AÑO: 2007
DURACIÓN: 124 min.
PAÍS: USA
DIRECTOR: Antoine Fuqua
GUIÓN: Jonathan Lemkin (Novela: Stephen Hunter)
REPARTO: Mark Wahlberg, Michael Peña, Danny Glover, Kate Mara, Elias Koteas, Rhona Mitra, Tate Donovan, Jonathan Walker, Justin Louis, Rade Serbedzija, Alan C. Peterson, Ned Beatty, Lane Garrison, Zak Santiago, Michael-Ann Connor
PRODUCTORA: Paramount Pictures
GÉNERO: Acción. Thriller. Drama
http://www.imdb.com/title/tt0822854/





Bob Lee Swagger (Mark Whalberg) es un ex-tirador de élite del ejército de los Estados Unidos que abandona las fuerzas armadas después del fracaso de una misión extraoficial. Cuando le piden que se reincorpore, regresa al servicio a regañadientes, pero vuelven a engañarlo. A pesar de llevar dos balas en el cuerpo y de ser el objetivo de una caza a nivel nacional, Swagger planea su venganza...
























La pelicula NO tiene ninguna marca... solo colocamos el nombre de esta web en las capturas






Código:
General
Format                           : Matroska
Format version                   : Version 2
File size                        : 3.29 GiB
Duration                         : 2h 5mn
Overall bit rate                 : 3 749 Kbps
Movie name                       : www.club-hd.com
Encoded date                     : UTC 2012-10-19 00:53:15
Writing application              : mkvmerge v5.7.0 ('The Whirlwind') built on Jul  8 2012 20:08:51
Writing library                  : libebml v1.2.3 + libmatroska v1.3.0

Video
ID                               : 1
Format                           : AVC
Format/Info                      : Advanced Video Codec
Format profile                   : High@L4.1
Format settings, CABAC           : Yes
Format settings, ReFrames        : 10 frames
Codec ID                         : V_MPEG4/ISO/AVC
Duration                         : 2h 5mn
Bit rate                         : 2 660 Kbps
Width                            : 1 280 pixels
Height                           : 534 pixels
Display aspect ratio             : 2.40:1
Frame rate                       : 23.976 fps
Color space                      : YUV
Chroma subsampling               : 4:2:0
Bit depth                        : 8 bits
Scan type                        : Progressive
Bits/(Pixel*Frame)               : 0.162
Stream size                      : 2.27 GiB (69%)
Title                            : www.club-hd.com
Writing library                  : x264 core 119 r2106 07efeb4
Language                         : English
Default                          : Yes
Forced                           : No

Audio #1
ID                               : 2
Format                           : AC-3
Format/Info                      : Audio Coding 3
Mode extension                   : CM (complete main)
Codec ID                         : A_AC3
Duration                         : 2h 5mn
Bit rate mode                    : Constant
Bit rate                         : 448 Kbps
Channel(s)                       : 6 channels
Channel positions                : Front: L C R, Side: L R, LFE
Sampling rate                    : 48.0 KHz
Bit depth                        : 16 bits
Compression mode                 : Lossy
Delay relative to video          : 32ms
Stream size                      : 403 MiB (12%)
Title                            : www.club-hd.com  >>  Latino
Language                         : Spanish
Default                          : Yes
Forced                           : No

Audio #2
ID                               : 3
Format                           : AC-3
Format/Info                      : Audio Coding 3
Mode extension                   : CM (complete main)
Codec ID                         : A_AC3
Duration                         : 2h 5mn
Bit rate mode                    : Constant
Bit rate                         : 640 Kbps
Channel(s)                       : 6 channels
Channel positions                : Front: L C R, Side: L R, LFE
Sampling rate                    : 48.0 KHz
Bit depth                        : 16 bits
Compression mode                 : Lossy
Stream size                      : 575 MiB (17%)
Title                            : www.club-hd.com  >>  Inglés
Language                         : English
Default                          : No
Forced                           : No

Text #1
ID                               : 4
Format                           : UTF-8
Codec ID                         : S_TEXT/UTF8
Codec ID/Info                    : UTF-8 Plain Text
Language                         : Spanish
Default                          : No
Forced                           : No

Text #2
ID                               : 5
Format                           : UTF-8
Codec ID                         : S_TEXT/UTF8
Codec ID/Info                    : UTF-8 Plain Text
Language                         : English
Default                          : No
Forced                           : No

Menu
00:00:00.000                     : en:Chapter 01
00:08:13.117                     : en:Chapter 02
00:16:22.690                     : en:Chapter 03
00:23:13.308                     : en:Chapter 04
00:31:37.145                     : en:Chapter 05
00:39:02.631                     : en:Chapter 06
00:44:25.245                     : en:Chapter 07
00:51:27.292                     : en:Chapter 08
00:57:52.427                     : en:Chapter 09
01:05:09.739                     : en:Chapter 10
01:11:44.591                     : en:Chapter 11
01:18:00.801                     : en:Chapter 12
01:23:32.298                     : en:Chapter 13
01:29:56.891                     : en:Chapter 14
01:36:00.588                     : en:Chapter 15
01:39:56.657                     : en:Chapter 16
01:50:08.643                     : en:Chapter 17
01:55:31.341                     : en:Chapter 18
02:00:28.930                     : en:Chapter 19










Enlaces de Mega y Google Drive solo disponibles para Miembros VIP

Compra tu Membresía VIP y apoya a Club-HD!

ATENCIÓN! Tenemos TODO el material de Club-HD disponible por Mega y Google Drive, enlaces 100% activos y online hasta la fecha

Llévate tus cuentas Mega PRO III gratis con tu membresía VIP!
Todos los posts vivos con links de Mega y Google Drive.
Todo el material de Club-HD desbloqueado y sin publicidad.

Click Aquí para más información.




Enlaces de Mega y Google Drive solo disponibles para Miembros VIP

Compra tu Membresía VIP y apoya a Club-HD!

ATENCIÓN! Tenemos TODO el material de Club-HD disponible por Mega y Google Drive, enlaces 100% activos y online hasta la fecha

Llévate tus cuentas Mega PRO III gratis con tu membresía VIP!
Todos los posts vivos con links de Mega y Google Drive.
Todo el material de Club-HD desbloqueado y sin publicidad.

Click Aquí para más información.



Para ver este contenido oculto, debes dar click en una de las siguientes reacciones : Like Like, Love Love, Haha Haha, Wow Wow, Sad Sad, Angry Angry
 
Última edición:

Tordak

New member
Registro
30 Ago 2012
Mensajes
277
Edad
36

Rep:

No soy muy fanatico de los micro-hd, pero hay que admitir que se ven mejor que un dvd aunque sea doble capa. Además la pelicula es muy buena y no la tengo en hd asi que descargando. Gracias! :)
 

Yonatan

Admin
Miembro del Staff
Administrador
Miembro VIP
Registro
27 Ago 2012
Mensajes
1.767
Edad
28
Ubicación
Chile, Sexta Región

Rep:

Nunca he visto esta película al parecer es muy buena así que a descargar se a dicho, gracias R21

Thanks :aplausos::aplausos::aplausos:
 

apolux27

Active member
Registro
21 Sep 2012
Mensajes
816
Edad
38

Rep:

te agradeceria un millon si la subieras en 1080p es una de mis favoritas ...gracias amigo..tu pagina es mi favorita..subes de todo....gracias mil ......
 

Usuarios Que Están Viendo Este Tema (Total: 1, Miembros: 0, Invitados: 1)

Quién Leyó Este Tema (Total Miembros: 1)

Arriba