Silent Hill: Revelation (2012) m-720p Dual Latino-Inglés [Subt. Esp-Ing] (Terror. Fantástico)

Maestro Revolver

Well-known member
Miembro del Staff
Administrador
Registro
9 Ago 2012
Mensajes
3.567

Rep:









TÍTULO ORIGINAL: Silent Hill: Revelation 3D (Silent Hill 2)
AÑO: 2012
DURACIÓN: 94 min.
PAÍS: USA
DIRECTOR: Michael J. Bassett
GUIÓN: Michael J. Bassett
REPARTO: Adelaide Clemens, Kit Harington, Sean Bean, Carrie-Anne Moss, Malcolm McDowell, Radha Mitchell, Deborah Kara Unger, Martin Donovan, Heather Marks, James Collins
PRODUCTORA: Coproducción Francia-EEUU; Davis-Films / Sony Pictures / Sony / KONAMI
GÉNERO: Terror. Fantástico | Sobrenatural. Monstruos. Videojuego. 3-D
: http://www.imdb.es/title/tt0938330/






Cuando cumple 18 años, Heather Mason decide buscar a su padre. Las pesadillas que la acechan la conducen a la ciudad de la niebla eterna, donde acabará descubriendo el misterio de Silent Hill. Secuela de la película Silent Hill, basada en una saga de videojuegos homónima.
























La pelicula NO tiene ninguna marca... solo colocamos el nombre de esta web en las capturas






Código:
General
Format                                   : Matroska
Format version                           : Version 2
File size                                : 2.40 GiB
Duration                                 : 1h 34mn
Overall bit rate                         : 3 627 Kbps
Movie name                               : www.club-hd.com
Encoded date                             : UTC 2013-02-07 02:03:35
Writing application                      : mkvmerge v5.7.0 ('The Whirlwind') built on Jul  8 2012 20:08:51
Writing library                          : libebml v1.2.3 + libmatroska v1.3.0

Video
ID                                       : 1
Format                                   : AVC
Format/Info                              : Advanced Video Codec
Format profile                           : High@L4.1
Format settings, CABAC                   : Yes
Format settings, ReFrames                : 9 frames
Codec ID                                 : V_MPEG4/ISO/AVC
Duration                                 : 1h 34mn
Bit rate                                 : 2 729 Kbps
Width                                    : 1 280 pixels
Height                                   : 534 pixels
Display aspect ratio                     : 2.40:1
Frame rate mode                          : Constant
Frame rate                               : 23.976 fps
Color space                              : YUV
Chroma subsampling                       : 4:2:0
Bit depth                                : 8 bits
Scan type                                : Progressive
Bits/(Pixel*Frame)                       : 0.167
Stream size                              : 1.76 GiB (73%)
Title                                    : www.club-hd.com
Writing library                          : x264 core 129 r2245 bc13772
Language                                 : English
Default                                  : Yes
Forced                                   : No

Audio #1
ID                                       : 2
Format                                   : AC-3
Format/Info                              : Audio Coding 3
Mode extension                           : CM (complete main)
Format settings, Endianness              : Big
Codec ID                                 : A_AC3
Duration                                 : 1h 34mn
Bit rate mode                            : Constant
Bit rate                                 : 448 Kbps
Channel(s)                               : 6 channels
Channel positions                        : Front: L C R, Side: L R, LFE
Sampling rate                            : 48.0 KHz
Bit depth                                : 16 bits
Compression mode                         : Lossy
Stream size                              : 304 MiB (12%)
Title                                    : www.club-hd.com  >>  Latino
Language                                 : Spanish
Default                                  : Yes
Forced                                   : No

Audio #2
ID                                       : 3
Format                                   : AC-3
Format/Info                              : Audio Coding 3
Mode extension                           : CM (complete main)
Format settings, Endianness              : Big
Codec ID                                 : A_AC3
Duration                                 : 1h 34mn
Bit rate mode                            : Constant
Bit rate                                 : 448 Kbps
Channel(s)                               : 6 channels
Channel positions                        : Front: L C R, Side: L R, LFE
Sampling rate                            : 48.0 KHz
Bit depth                                : 16 bits
Compression mode                         : Lossy
Stream size                              : 304 MiB (12%)
Title                                    : www.club-hd.com  >>  Inglés
Language                                 : English
Default                                  : No
Forced                                   : No

Text #1
ID                                       : 4
Format                                   : UTF-8
Codec ID                                 : S_TEXT/UTF8
Codec ID/Info                            : UTF-8 Plain Text
Language                                 : Spanish
Default                                  : No
Forced                                   : No

Text #2
ID                                       : 5
Format                                   : UTF-8
Codec ID                                 : S_TEXT/UTF8
Codec ID/Info                            : UTF-8 Plain Text
Language                                 : English
Default                                  : No
Forced                                   : No

Menu
00:00:00.000                             : en:Chapter 1
00:04:41.490                             : en:Chapter 2
00:11:38.531                             : en:Chapter 3
00:17:09.612                             : en:Chapter 4
00:21:29.497                             : en:Chapter 5
00:24:04.485                             : en:Chapter 6
00:27:59.928                             : en:Chapter 7
00:31:28.011                             : en:Chapter 8
00:35:24.080                             : en:Chapter 9
00:40:50.239                             : en:Chapter 10
00:46:50.474                             : en:Chapter 11
00:50:35.282                             : en:Chapter 12
00:53:56.024                             : en:Chapter 13
00:57:47.673                             : en:Chapter 14
01:03:52.829                             : en:Chapter 15
01:06:30.445                             : en:Chapter 16
01:11:29.285                             : en:Chapter 17
01:16:35.299                             : en:Chapter 18
01:23:00.100                             : en:Chapter 19
01:27:21.069                             : en:Chapter 20





Nota: El audio Español Latino fue extraido del dvd (AC3 2.0). El audio dvd fue convertido de 2.0 a 5.1 y agregado a esta pelicula. Se escucha muy bien.
Imagen Aqui












Enlaces de Mega y Google Drive solo disponibles para Miembros VIP

Compra tu Membresía VIP y apoya a Club-HD!

ATENCIÓN! Tenemos TODO el material de Club-HD disponible por Mega y Google Drive, enlaces 100% activos y online hasta la fecha

Llévate tus cuentas Mega PRO III gratis con tu membresía VIP!
Todos los posts vivos con links de Mega y Google Drive.
Todo el material de Club-HD desbloqueado y sin publicidad.

Click Aquí para más información.




Enlaces de Mega y Google Drive solo disponibles para Miembros VIP

Compra tu Membresía VIP y apoya a Club-HD!

ATENCIÓN! Tenemos TODO el material de Club-HD disponible por Mega y Google Drive, enlaces 100% activos y online hasta la fecha

Llévate tus cuentas Mega PRO III gratis con tu membresía VIP!
Todos los posts vivos con links de Mega y Google Drive.
Todo el material de Club-HD desbloqueado y sin publicidad.

Click Aquí para más información.



Para ver este contenido oculto, debes dar click en una de las siguientes reacciones : Like Like, Love Love, Haha Haha, Wow Wow, Sad Sad, Angry Angry

 
Última edición por un moderador:

Claudia

New member
Súper Moderador
Registro
28 Ago 2012
Mensajes
2.282
Edad
48
Ubicación
EN MI MUNDO REAL...

Rep:

Pl4yb0yAdmirable trabajo mi querido señor, como no cuidar este sitio, me da orgullo ser parte de el, GRACIAS MI QUERIDO MAESTRO.
 

Pedrum

The Buckminster
Registro
28 Ago 2012
Mensajes
1.092
Ubicación
Bahia Blanca

Rep:

Gracias Revolver, muy esperada esta película!!! También gracias x especificar el detalle del audio aunque a esta altura nos conocemos mucho como para dudar de la calidad de las películas de club-hd ;)

Yo bajo con los ojos cerrados...con eso te digo todo..

Saludos amigo! victory
 

Mate78

Ladron de mi cerebro
Miembro del Staff
Súper Moderador
Miembro VIP
Registro
27 Ago 2012
Mensajes
1.244

Rep:

Tremendo , como nos tienes acostumbrados !!!! gracias BESTIA !!!!:aplausos:
 

Usuarios Que Están Viendo Este Tema (Total: 1, Miembros: 0, Invitados: 1)

Quién Leyó Este Tema (Total Miembros: 3)

Arriba