Silver Linings Playbook (2012) m-720p Dual Latino-Inglés [Subt. Esp] (Romance. Drama)

Maestro Revolver

Well-known member
Miembro del Staff
Administrador
Registro
9 Ago 2012
Mensajes
3.567








TÍTULO ORIGINAL: Silver Linings Playbook
AÑO: 2012
DURACIÓN: 120 min.
PAÍS: USA
DIRECTOR: David O. Russell
GUIÓN: David O. Russell (Libro: Matthew Quick)
REPARTO: Bradley Cooper, Jennifer Lawrence, Robert De Niro, Jacki Weaver, Chris Tucker, Julia Stiles, Anupam Kher, John Ortiz, Shea Whigham, Dash Mihok, Paul Herman, Brea Bee
PRODUCTORA: Mirage Enterprises / The Weinstein Company
GÉNERO: Romance. Drama. Comedia | Comedia romántica. Comedia dramática
: http://www.imdb.com/title/tt1045658/


PREMIOS: 2012: Oscar: mejor actriz (Jennifer Lawrence). 8 nominaciones, incluyendo mejor película
2012: Globos de Oro: Mejor actriz comedia/musical (Lawrence). 4 nominaciones
2012: 4 Critics Choice Awards: Mejor comedia, actor, actriz de comedia y reparto. 10 nom.
2012: Premios BAFTA: Mejor guión adaptado. 3 nominaciones
2012: Festival de Toronto: Mejor película (premio del público)
2012: Independent Spirit Awards: Mejor película, director, guion y actriz
2012: Premios Gotham: Nominada a Mejor reparto
2012: Satellite Awards: 5 premios, incluyendo Mejor película y director. 7 nominaciones
2012: National Board of Review (NBR): Top 10, Mejor actor (Cooper) y guión original
2012: Asociación de Críticos de Los Angeles: Mejor actriz (Jennifer Lawrence)
2012: American Film Institute: Top 10 - Mejores películas del año
2012: Hollywood Film Festival: Director, Actor (Cooper), Actor Sec. (De Niro) del año





Tras pasar ocho meses en una institución mental por agredir al amante de su mujer, Pat (Bradley Cooper) vuelve con lo puesto a vivir en casa de sus padres (Robert De Niro y Jacki Weaver). Determinado a tener una actitud positiva y recuperar a su ex-mujer, el mundo de Pat se pone del revés cuando conoce a Tiffany (Jennifer Lawrence), una chica con ciertos problemas y no muy buena fama en el barrio. A pesar de su mutua desconfianza inicial, entre ellos pronto se desarrollará un vínculo muy especial que les ayudará a encontrar en sus vidas el lado bueno de las cosas.
























La pelicula NO tiene ninguna marca... solo colocamos el nombre de esta web en las capturas






Código:
General
Format                                   : Matroska
Format version                           : Version 2
File size                                : 2.87 GiB
Duration                                 : 2h 2mn
Overall bit rate                         : 3 361 Kbps
Movie name                               : www.club-hd.com
Encoded date                             : UTC 2013-05-05 16:27:54
Writing application                      : mkvmerge v5.7.0 ('The Whirlwind') built on Jul  8 2012 20:08:51
Writing library                          : libebml v1.2.3 + libmatroska v1.3.0

Video
ID                                       : 1
Format                                   : AVC
Format/Info                              : Advanced Video Codec
Format profile                           : High@L4.1
Format settings, CABAC                   : Yes
Format settings, ReFrames                : 9 frames
Codec ID                                 : V_MPEG4/ISO/AVC
Duration                                 : 2h 2mn
Bit rate                                 : 2 661 Kbps
Width                                    : 1 280 pixels
Height                                   : 534 pixels
Display aspect ratio                     : 2.40:1
Frame rate mode                          : Constant
Frame rate                               : 23.976 fps
Color space                              : YUV
Chroma subsampling                       : 4:2:0
Bit depth                                : 8 bits
Scan type                                : Progressive
Bits/(Pixel*Frame)                       : 0.162
Stream size                              : 2.21 GiB (77%)
Title                                    : www.club-hd.com
Writing library                          : x264 core 130 r2273 b3065e6
Language                                 : English
Default                                  : Yes
Forced                                   : No

Audio #1
ID                                       : 2
Format                                   : AC-3
Format/Info                              : Audio Coding 3
Mode extension                           : CM (complete main)
Format settings, Endianness              : Big
Codec ID                                 : A_AC3
Duration                                 : 2h 2mn
Bit rate mode                            : Constant
Bit rate                                 : 256 Kbps
Channel(s)                               : 2 channels
Channel positions                        : Front: L R
Sampling rate                            : 44.1 KHz
Bit depth                                : 16 bits
Compression mode                         : Lossy
Stream size                              : 224 MiB (8%)
Title                                    : Latino
Language                                 : Spanish
Default                                  : Yes
Forced                                   : No

Audio #2
ID                                       : 3
Format                                   : AC-3
Format/Info                              : Audio Coding 3
Mode extension                           : CM (complete main)
Format settings, Endianness              : Big
Codec ID                                 : A_AC3
Duration                                 : 2h 2mn
Bit rate mode                            : Constant
Bit rate                                 : 448 Kbps
Channel(s)                               : 6 channels
Channel positions                        : Front: L C R, Side: L R, LFE
Sampling rate                            : 48.0 KHz
Bit depth                                : 16 bits
Compression mode                         : Lossy
Stream size                              : 391 MiB (13%)
Title                                    : Inglés
Language                                 : English
Default                                  : No
Forced                                   : No

Text
ID                                       : 4
Format                                   : UTF-8
Codec ID                                 : S_TEXT/UTF8
Codec ID/Info                            : UTF-8 Plain Text
Language                                 : Spanish
Default                                  : No
Forced                                   : No








Enlaces de Mega y Google Drive solo disponibles para Miembros VIP

Compra tu Membresía VIP y apoya a Club-HD!

ATENCIÓN! Tenemos TODO el material de Club-HD disponible por Mega y Google Drive, enlaces 100% activos y online hasta la fecha

Llévate tus cuentas Mega PRO III gratis con tu membresía VIP!
Todos los posts vivos con links de Mega y Google Drive.
Todo el material de Club-HD desbloqueado y sin publicidad.

Click Aquí para más información.



Para ver este contenido oculto, debes dar click en una de las siguientes reacciones : Like Like, Love Love, Haha Haha, Wow Wow, Sad Sad, Angry Angry
 
Última edición por un moderador:

Usuarios Que Están Viendo Este Tema (Total: 1, Miembros: 0, Invitados: 1)

Quién Leyó Este Tema (Total Miembros: 3)

Arriba