Skyfall (2012) 1080p BDRip Dual Latino-Inglés [Subt. Esp] (Acción. Thriller)

Maestro Revolver

Well-known member
Miembro del Staff
Administrador
Registro
9 Ago 2012
Mensajes
3.569
Reacciones
59.354
Puntos
113

Reputation:


Aporte Recuperado gracias a nuestro amigo clasaase







TÍTULO ORIGINAL: Skyfall
AÑO: 2012
DURACIÓN: 143 min.
PAÍS: Reino Unido
DIRECTOR: Sam Mendes
GUIÓN: Neal Purvis, Robert Wade, John Logan (Personaje: Ian Fleming)
REPARTO: Daniel Craig, Judi Dench, Javier Bardem, Ralph Fiennes, Naomie Harris, Bérénice Marlohe, Albert Finney, Ben Whishaw, Rory Kinnear, Ola Rapace, Helen McCrory, Nicholas Woodeson, Elize du Toit, Ben Loyd-Holmes, Tonia Sotiropoulou, Orion Lee
PRODUCTORA: MGM / Columbia Pictures / Albert R. Broccoli / Eon Productions / B23
GÉNERO: Acción. Thriller | James Bond. Espionaje
: http://www.imdb.es/title/tt1074638/

PREMIOS: 2012: Oscars: 5 nominaciones, incluyendo mejor banda sonora
2012: Premios BAFTA: 8 nominaciones, incluyendo mejor película
2012: Critics Choice Awards: 3 premios, incluyendo Mejor película de acción. 7 nomin.
2012: Satellite Awards: Mejor actor de reparto (Bardem) 7 nomin., incluy. Mejor película
2012: Asociación de Críticos de Los Angeles: Mejor fotografía
2012: Globos de Oro: Mejor canción original






La lealtad de James Bond (Daniel Craig), el mejor agente de los servicios británicos, hacia su superiora M (Judi Dench) se verá puesta a prueba cuando el pasado de ella vuelve para atormentarla. Al mismo tiempo, el MI6 sufre un ataque, y 007 tendrá que localizar y destruir el grave peligro que representa el villano Silva (Javier Bardem). Para conseguirlo contará con la ayuda de la agente Eve (Naomie Harris).
























La pelicula NO tiene ninguna marca... solo colocamos el nombre de esta web en las capturas






Código:
General
Format                                   : Matroska
Format version                           : Version 2
File size                                : 10.9 GiB
Duration                                 : 2h 23mn
Overall bit rate                         : 10.9 Mbps
Movie name                               : www.club-hd.com
Encoded date                             : UTC 2013-02-02 00:01:02
Writing application                      : mkvmerge v5.7.0 ('The Whirlwind') built on Jul  8 2012 20:08:51
Writing library                          : libebml v1.2.3 + libmatroska v1.3.0

Video
ID                                       : 1
Format                                   : AVC
Format/Info                              : Advanced Video Codec
Format profile                           : High@L4.1
Format settings, CABAC                   : Yes
Format settings, ReFrames                : 5 frames
Codec ID                                 : V_MPEG4/ISO/AVC
Duration                                 : 2h 23mn
Bit rate                                 : 8 320 Kbps
Width                                    : 1 920 pixels
Height                                   : 800 pixels
Display aspect ratio                     : 2.40:1
Frame rate mode                          : Constant
Frame rate                               : 23.976 fps
Color space                              : YUV
Chroma subsampling                       : 4:2:0
Bit depth                                : 8 bits
Scan type                                : Progressive
Bits/(Pixel*Frame)                       : 0.226
Stream size                              : 8.11 GiB (74%)
Title                                    : www.club-hd.com
Writing library                          : x264 core 129 r2245kMod bc13772
Language                                 : English
Default                                  : Yes
Forced                                   : No

Audio #1
ID                                       : 2
Format                                   : AC-3
Format/Info                              : Audio Coding 3
Mode extension                           : CM (complete main)
Format settings, Endianness              : Big
Codec ID                                 : A_AC3
Duration                                 : 2h 23mn
Bit rate mode                            : Constant
Bit rate                                 : 448 Kbps
Channel(s)                               : 6 channels
Channel positions                        : Front: L C R, Side: L R, LFE
Sampling rate                            : 48.0 KHz
Bit depth                                : 16 bits
Compression mode                         : Lossy
Stream size                              : 459 MiB (4%)
Title                                    : www.club-hd.com  >>  Latino AC3 5.1
Language                                 : Spanish
Default                                  : Yes
Forced                                   : No

Audio #2
ID                                       : 3
Format                                   : AC-3
Format/Info                              : Audio Coding 3
Mode extension                           : CM (complete main)
Format settings, Endianness              : Big
Codec ID                                 : A_AC3
Duration                                 : 2h 23mn
Bit rate mode                            : Constant
Bit rate                                 : 640 Kbps
Channel(s)                               : 6 channels
Channel positions                        : Front: L C R, Side: L R, LFE
Sampling rate                            : 48.0 KHz
Bit depth                                : 16 bits
Compression mode                         : Lossy
Stream size                              : 655 MiB (6%)
Title                                    : www.club-hd.com  >>  Inglés AC3 5.1
Language                                 : English
Default                                  : No
Forced                                   : No

Audio #3
ID                                       : 4
Format                                   : DTS
Format/Info                              : Digital Theater Systems
Mode                                     : 16
Format settings, Endianness              : Big
Codec ID                                 : A_DTS
Duration                                 : 2h 23mn
Bit rate mode                            : Constant
Bit rate                                 : 1 509 Kbps
Channel(s)                               : 6 channels
Channel positions                        : Front: L C R, Side: L R, LFE
Sampling rate                            : 48.0 KHz
Bit depth                                : 24 bits
Compression mode                         : Lossy
Stream size                              : 1.51 GiB (14%)
Title                                    : www.club-hd.com  >>  Inglés DTS 5.1
Language                                 : English
Default                                  : No
Forced                                   : No


[SIZE=6][B][URL="http://www.subdivx.com/X6XMzE4MDU5X-skyfall-2012.html"]Descarga Subtitulos Forzados Aqui[/URL][/B][/SIZE]


Text
ID                                       : 5
Format                                   : UTF-8
Codec ID                                 : S_TEXT/UTF8
Codec ID/Info                            : UTF-8 Plain Text
Language                                 : Spanish
Default                                  : No
Forced                                   : No

Menu
00:00:00.000                             : en:00:00:00.000
00:04:28.477                             : en:00:04:28.477
00:07:32.452                             : en:00:07:32.452
00:12:47.392                             : en:00:12:47.392
00:16:47.465                             : en:00:16:47.465
00:21:37.338                             : en:00:21:37.338
00:25:00.290                             : en:00:25:00.290
00:29:25.222                             : en:00:29:25.222
00:35:06.146                             : en:00:35:06.146
00:38:27.764                             : en:00:38:27.764
00:41:24.440                             : en:00:41:24.440
00:46:22.905                             : en:00:46:22.905
00:50:48.629                             : en:00:50:48.629
00:54:53.290                             : en:00:54:53.290
00:59:38.742                             : en:00:59:38.742
01:05:14.244                             : en:01:05:14.244
01:10:16.671                             : en:01:10:16.671
01:17:09.750                             : en:01:17:09.750
01:20:55.059                             : en:01:20:55.059
01:26:10.374                             : en:01:26:10.374
01:31:49.754                             : en:01:31:49.754
01:37:04.527                             : en:01:37:04.527
01:40:49.085                             : en:01:40:49.085
01:43:45.970                             : en:01:43:45.970
01:45:54.723                             : en:01:45:54.723
01:52:10.599                             : en:01:52:10.599
01:54:45.796                             : en:01:54:45.796
01:58:13.044                             : en:01:58:13.044
02:02:49.112                             : en:02:02:49.112
02:09:38.646                             : en:02:09:38.646
02:14:49.623                             : en:02:14:49.623
02:17:46.425                             : en:02:17:46.425







Código:
www.club-hd.com[/CENTER]










Enlaces de Mega y Fireload solo disponibles para Miembros VIP

Compra tu Membresía VIP y apoya a Club-HD!

ATENCIÓN! Tenemos TODO el material de Club-HD disponible por Mega y Fireload, enlaces 100% activos y online hasta la fecha

Llévate tus cuentas Mega PRO II gratis con tu membresía VIP!
Todos los posts vivos con links de Mega y Fireload.
Todo el material de Club-HD desbloqueado y sin publicidad.

Click Aquí para más información.



Todos los links son Intercambiables!



Enlaces de Mega y Fireload solo disponibles para Miembros VIP

Compra tu Membresía VIP y apoya a Club-HD!

ATENCIÓN! Tenemos TODO el material de Club-HD disponible por Mega y Fireload, enlaces 100% activos y online hasta la fecha

Llévate tus cuentas Mega PRO II gratis con tu membresía VIP!
Todos los posts vivos con links de Mega y Fireload.
Todo el material de Club-HD desbloqueado y sin publicidad.

Click Aquí para más información.



Para ver este contenido oculto, debes dar click en una de las siguientes reacciones : Like Like, Love Love, Haha Haha, Wow Wow, Sad Sad, Angry Angry


Para ver este contenido oculto, debes dar click en una de las siguientes reacciones : Like Like, Love Love, Haha Haha, Wow Wow, Sad Sad, Angry Angry
 
Última edición:

raptor

New member
Registro
1 Sep 2012
Mensajes
80
Reacciones
0
Puntos
0

Reputation:

muy bn esperando desde hace rato muchisimas gracias !!!!Desc_g_
 

Mate78

Ladron de mi cerebro
Miembro del Staff
Súper Moderador
Registro
27 Ago 2012
Mensajes
1.235
Reacciones
918
Puntos
113

Reputation:

No lo puedo creer , fantasia nene fantasiaaaa !!!! gracias BESTIA21 !!!:dplgar::dplgar::dplgar:
 

edward1080

Well-known member
Registro
23 Nov 2012
Mensajes
1.013
Reacciones
137
Puntos
63
Edad
34

Reputation:

Genial master!!! la estaba esperando, Gran aporte! :dplgar:
 

Chely123

New member
Registro
27 Ago 2012
Mensajes
63
Reacciones
4
Puntos
0

Reputation:

excelente pieza!! me quedo esperando el 720p ya q mi lap no corre el 1080p TT-TT ya q ando por aqi alguien sabe como reproducir mkv en un ps3 :S?? jaja
 

Usuarios Que Están Viendo Este Tema (Total: 1, Miembros: 0, Invitados: 1)

Arriba