Skyfall (2012) m-720p Dual Latino-Inglés [Subt. Esp] (Acción. Thriller)

Maestro Revolver

Well-known member
Miembro del Staff
Administrador
Registro
9 Ago 2012
Mensajes
3.569
Reacciones
59.471
Puntos
113

Reputation:









TÍTULO ORIGINAL: Skyfall
AÑO: 2012
DURACIÓN: 143 min.
PAÍS: Reino Unido
DIRECTOR: Sam Mendes
GUIÓN: Neal Purvis, Robert Wade, John Logan (Personaje: Ian Fleming)
REPARTO: Daniel Craig, Judi Dench, Javier Bardem, Ralph Fiennes, Naomie Harris, Bérénice Marlohe, Albert Finney, Ben Whishaw, Rory Kinnear, Ola Rapace, Helen McCrory, Nicholas Woodeson, Elize du Toit, Ben Loyd-Holmes, Tonia Sotiropoulou, Orion Lee
PRODUCTORA: MGM / Columbia Pictures / Albert R. Broccoli / Eon Productions / B23
GÉNERO: Acción. Thriller | James Bond. Espionaje
: http://www.imdb.es/title/tt1074638/

PREMIOS: 2012: Oscars: 5 nominaciones, incluyendo mejor banda sonora
2012: Premios BAFTA: 8 nominaciones, incluyendo mejor película
2012: Critics Choice Awards: 3 premios, incluyendo Mejor película de acción. 7 nomin.
2012: Satellite Awards: Mejor actor de reparto (Bardem) 7 nomin., incluy. Mejor película
2012: Asociación de Críticos de Los Angeles: Mejor fotografía
2012: Globos de Oro: Mejor canción original






La lealtad de James Bond (Daniel Craig), el mejor agente de los servicios británicos, hacia su superiora M (Judi Dench) se verá puesta a prueba cuando el pasado de ella vuelve para atormentarla. Al mismo tiempo, el MI6 sufre un ataque, y 007 tendrá que localizar y destruir el grave peligro que representa el villano Silva (Javier Bardem). Para conseguirlo contará con la ayuda de la agente Eve (Naomie Harris).
























La pelicula NO tiene ninguna marca... solo colocamos el nombre de esta web en las capturas






Código:
General
Format                                   : Matroska
Format version                           : Version 2
File size                                : 3.95 GiB
Duration                                 : 2h 23mn
Overall bit rate                         : 3 952 Kbps
Movie name                               : www.club-hd.com
Encoded date                             : UTC 2013-02-02 01:32:59
Writing application                      : mkvmerge v5.7.0 ('The Whirlwind') built on Jul  8 2012 20:08:51
Writing library                          : libebml v1.2.3 + libmatroska v1.3.0

Video
ID                                       : 1
Format                                   : AVC
Format/Info                              : Advanced Video Codec
Format profile                           : High@L4.1
Format settings, CABAC                   : Yes
Format settings, ReFrames                : 9 frames
Codec ID                                 : V_MPEG4/ISO/AVC
Duration                                 : 2h 23mn
Bit rate                                 : 2 865 Kbps
Width                                    : 1 280 pixels
Height                                   : 534 pixels
Display aspect ratio                     : 2.40:1
Frame rate mode                          : Constant
Frame rate                               : 23.976 fps
Color space                              : YUV
Chroma subsampling                       : 4:2:0
Bit depth                                : 8 bits
Scan type                                : Progressive
Bits/(Pixel*Frame)                       : 0.175
Stream size                              : 2.79 GiB (70%)
Title                                    : www.club-hd.com
Writing library                          : x264 core 129 r2245 bc13772
Language                                 : English
Default                                  : Yes
Forced                                   : No

Audio #1
ID                                       : 2
Format                                   : AC-3
Format/Info                              : Audio Coding 3
Mode extension                           : CM (complete main)
Format settings, Endianness              : Big
Codec ID                                 : A_AC3
Duration                                 : 2h 23mn
Bit rate mode                            : Constant
Bit rate                                 : 448 Kbps
Channel(s)                               : 6 channels
Channel positions                        : Front: L C R, Side: L R, LFE
Sampling rate                            : 48.0 KHz
Bit depth                                : 16 bits
Compression mode                         : Lossy
Stream size                              : 459 MiB (11%)
Title                                    : www.club-hd.com  >>  Latino
Language                                 : Spanish
Default                                  : Yes
Forced                                   : No

Audio #2
ID                                       : 3
Format                                   : AC-3
Format/Info                              : Audio Coding 3
Mode extension                           : CM (complete main)
Format settings, Endianness              : Big
Codec ID                                 : A_AC3
Duration                                 : 2h 23mn
Bit rate mode                            : Constant
Bit rate                                 : 640 Kbps
Channel(s)                               : 6 channels
Channel positions                        : Front: L C R, Side: L R, LFE
Sampling rate                            : 48.0 KHz
Bit depth                                : 16 bits
Compression mode                         : Lossy
Stream size                              : 655 MiB (16%)
Title                                    : www.club-hd.com  >>  Inglés
Language                                 : English
Default                                  : No
Forced                                   : No


[SIZE=6][B][URL="http://www.subdivx.com/X6XMzE4MDU5X-skyfall-2012.html"]Descarga Subtitulos Forzados Aqui[/URL][/B][/SIZE]


Text
ID                                       : 4
Format                                   : UTF-8
Codec ID                                 : S_TEXT/UTF8
Codec ID/Info                            : UTF-8 Plain Text
Language                                 : Spanish
Default                                  : No
Forced                                   : No

Menu
00:00:00.000                             : en:Chapter 1
00:04:28.477                             : en:Chapter 2
00:07:32.452                             : en:Chapter 3
00:12:47.392                             : en:Chapter 4
00:16:47.465                             : en:Chapter 5
00:21:37.338                             : en:Chapter 6
00:25:00.290                             : en:Chapter 7
00:29:25.222                             : en:Chapter 8
00:35:06.146                             : en:Chapter 9
00:38:27.764                             : en:Chapter 10
00:41:24.440                             : en:Chapter 11
00:46:22.905                             : en:Chapter 12
00:50:48.629                             : en:Chapter 13
00:54:53.290                             : en:Chapter 14
00:59:38.742                             : en:Chapter 15
01:05:14.244                             : en:Chapter 16
01:10:16.671                             : en:Chapter 17
01:17:09.750                             : en:Chapter 18
01:20:55.059                             : en:Chapter 19
01:26:10.374                             : en:Chapter 20
01:31:49.754                             : en:Chapter 21
01:37:04.527                             : en:Chapter 22
01:40:49.085                             : en:Chapter 23
01:43:45.970                             : en:Chapter 24
01:45:54.723                             : en:Chapter 25
01:52:10.599                             : en:Chapter 26
01:54:45.796                             : en:Chapter 27
01:58:13.044                             : en:Chapter 28
02:02:49.112                             : en:Chapter 29
02:09:38.646                             : en:Chapter 30
02:14:49.623                             : en:Chapter 31
02:17:46.425                             : en:Chapter 32




Descarga Subtitulos Forzados Aqui










Enlaces de Mega y Fireload solo disponibles para Miembros VIP

Compra tu Membresía VIP y apoya a Club-HD!

ATENCIÓN! Tenemos TODO el material de Club-HD disponible por Mega y Fireload, enlaces 100% activos y online hasta la fecha

Llévate tus cuentas Mega PRO II gratis con tu membresía VIP!
Todos los posts vivos con links de Mega y Fireload.
Todo el material de Club-HD desbloqueado y sin publicidad.

Click Aquí para más información.




Enlaces de Mega y Fireload solo disponibles para Miembros VIP

Compra tu Membresía VIP y apoya a Club-HD!

ATENCIÓN! Tenemos TODO el material de Club-HD disponible por Mega y Fireload, enlaces 100% activos y online hasta la fecha

Llévate tus cuentas Mega PRO II gratis con tu membresía VIP!
Todos los posts vivos con links de Mega y Fireload.
Todo el material de Club-HD desbloqueado y sin publicidad.

Click Aquí para más información.


Enlaces de Mega y Fireload solo disponibles para Miembros VIP

Compra tu Membresía VIP y apoya a Club-HD!

ATENCIÓN! Tenemos TODO el material de Club-HD disponible por Mega y Fireload, enlaces 100% activos y online hasta la fecha

Llévate tus cuentas Mega PRO II gratis con tu membresía VIP!
Todos los posts vivos con links de Mega y Fireload.
Todo el material de Club-HD desbloqueado y sin publicidad.

Click Aquí para más información.


Para ver este contenido oculto, debes dar click en una de las siguientes reacciones : Like Like, Love Love, Haha Haha, Wow Wow, Sad Sad, Angry Angry


Para ver este contenido oculto, debes dar click en una de las siguientes reacciones : Like Like, Love Love, Haha Haha, Wow Wow, Sad Sad, Angry Angry
 
Última edición:

kenny407

New member
Registro
27 Ago 2012
Mensajes
490
Reacciones
29
Puntos
0
Edad
27

Reputation:

Post#1 Excelente aporte!!! les agradezco mucho, son los maestros de las peliculas
 

Yonatan

Admin
Miembro del Staff
Administrador
Registro
27 Ago 2012
Mensajes
1.768
Reacciones
3.736
Puntos
113
Edad
28
Ubicación
Chile, Sexta Región

Reputation:

Gracias Maestro por traernos lo mejor de lo mejor, esta me la llevo y vuelvo a decir Gracias xD
 

Lamah4189

New member
Registro
29 Ago 2012
Mensajes
114
Reacciones
2
Puntos
0
Edad
32

Reputation:

Gracias estaba esperando esta pelicula Desc_g_
 

RulitoCR

Active member
Registro
28 Ago 2012
Mensajes
513
Reacciones
55
Puntos
28

Reputation:

A ver si algún día veo alguna de James Bond!!
 

Javijp

Active member
Registro
27 Ago 2012
Mensajes
293
Reacciones
35
Puntos
28

Reputation:

Gracias por el arduo trabajo que hacen para traernos estas películas gracias Revolver21
 

Usuarios Que Están Viendo Este Tema (Total: 1, Miembros: 0, Invitados: 1)

Arriba