Slumdog Millionaire (2008) 720p Dual Latino-Inglés/Hindi [Subt. Esp] (Drama. Romance)

Maestro Revolver

Well-known member
Miembro del Staff
Administrador
Registro
9 Ago 2012
Mensajes
3.569
Reacciones
59.471
Puntos
113

Reputation:









TÍTULO ORIGINAL: Slumdog Millionaire
AÑO: 2008
DURACIÓN: 123 min.
PAÍS: Reino Unido
DIRECTOR: Danny Boyle, Loveleen Tandan
GUIÓN: Simon Beaufoy (Novela: Vikas Swarup)
REPARTO: Dev Patel, Freida Pinto, Madhur Mittal, Anil Kapoor, Irrfan Khan, Mia Drake
PRODUCTORA: Coproducción Reino Unido-EEUU; Fox Searchlight / Warner Independent / Celador Films / Film4
GÉNERO: Drama. Romance | Pobreza
: http://www.imdb.com/title/tt1010048/

PREMIOS: 2008: 8 Oscars: incluyendo mejor película, director y guión adaptado. 10 nominaciones
2008: 4 Globos de Oro: Mejor película dramática, director, guión, banda sonora
2008: 7 Premios BAFTA, incluyendo mejor película. 11 nominaciones
2008: 3 premios National Board of Review, incluyendo película del año, guión adaptado
2008: Festival de Toronto: Mejor película
2008: Premio Goya: Mejor película europea
2008: Premios David di Donatello: Mejor film de la Unión Europea
2008: Asociación de Críticos de Los Angeles: Mejor director y banda sonora






Jamal Malik (Dev Patel) es un adolescente pobre de Bombay que participa en la versión hindú del programa "¿Quién quiere ser millonario?". A punto de conseguir 20 millones de rupias, que es el premio máximo del concurso, el joven es interrogado por la policía, que sospecha que esta haciendo trampas. Pero para cada una de las preguntas, Jamal tiene una respuesta.
























La pelicula NO tiene ninguna marca... solo colocamos el nombre de esta web en las capturas



NOTA

En la pelicula hay partes donde se habla en Hindi y la traducción en inglés marcando un texto en el video. Lo pueden ver en la captura numero 2.








Código:
General
Format                                   : Matroska
Format version                           : Version 2
File size                                : 3.51 GiB
Duration                                 : 2h 0mn
Overall bit rate                         : 4 169 Kbps
Movie name                               : www.club-hd.com
Encoded date                             : UTC 2012-12-27 15:04:19
Writing application                      : mkvmerge v5.7.0 ('The Whirlwind') built on Jul  8 2012 20:08:51
Writing library                          : libebml v1.2.3 + libmatroska v1.3.0

Video
ID                                       : 1
Format                                   : AVC
Format/Info                              : Advanced Video Codec
Format profile                           : High@L3.1
Format settings, CABAC                   : Yes
Format settings, ReFrames                : 6 frames
Codec ID                                 : V_MPEG4/ISO/AVC
Duration                                 : 2h 0mn
Bit rate                                 : 3 500 Kbps
Width                                    : 1 280 pixels
Height                                   : 544 pixels
Display aspect ratio                     : 2.35:1
Frame rate mode                          : Constant
Frame rate                               : 23.976 fps
Color space                              : YUV
Chroma subsampling                       : 4:2:0
Bit depth                                : 8 bits
Scan type                                : Progressive
Bits/(Pixel*Frame)                       : 0.210
Stream size                              : 2.85 GiB (81%)
Title                                    : www.club-hd.com
Writing library                          : x264 core 120
Language                                 : English
Default                                  : Yes
Forced                                   : No
Color primaries                          : BT.709
Transfer characteristics                 : BT.709
Matrix coefficients                      : BT.709

Audio #1
ID                                       : 2
Format                                   : AC-3
Format/Info                              : Audio Coding 3
Mode extension                           : CM (complete main)
Format settings, Endianness              : Big
Codec ID                                 : A_AC3
Duration                                 : 2h 0mn
Bit rate mode                            : Constant
Bit rate                                 : 256 Kbps
Channel(s)                               : 2 channels
Channel positions                        : Front: L R
Sampling rate                            : 48.0 KHz
Bit depth                                : 16 bits
Compression mode                         : Lossy
Stream size                              : 221 MiB (6%)
Title                                    : www.club-hd.com  >>  Latino
Language                                 : Spanish
Default                                  : Yes
Forced                                   : No

Audio #2
ID                                       : 3
Format                                   : AC-3
Format/Info                              : Audio Coding 3
Mode extension                           : CM (complete main)
Format settings, Endianness              : Big
Codec ID                                 : A_AC3
Duration                                 : 2h 0mn
Bit rate mode                            : Constant
Bit rate                                 : 448 Kbps
Channel(s)                               : 6 channels
Channel positions                        : Front: L C R, Side: L R, LFE
Sampling rate                            : 48.0 KHz
Bit depth                                : 16 bits
Compression mode                         : Lossy
Delay relative to video                  : 2ms
Stream size                              : 386 MiB (11%)
Title                                    : www.club-hd.com  >>  Hindi/English
Language                                 : Hindi
Default                                  : No
Forced                                   : No

Text
ID                                       : 4
Format                                   : UTF-8
Codec ID                                 : S_TEXT/UTF8
Codec ID/Info                            : UTF-8 Plain Text
Language                                 : Spanish
Default                                  : No
Forced                                   : No

Menu
00:00:00.000                             : en:Chapter 1
00:03:51.481                             : en:Chapter 2
00:06:30.765                             : en:Chapter 3
00:09:49.172                             : en:Chapter 4
00:14:58.564                             : en:Chapter 5
00:16:51.093                             : en:Chapter 6
00:20:56.255                             : en:Chapter 7
00:23:14.977                             : en:Chapter 8
00:26:18.160                             : en:Chapter 9
00:30:10.892                             : en:Chapter 10
00:38:24.886                             : en:Chapter 11
00:41:22.021                             : en:Chapter 12
00:48:15.059                             : en:Chapter 13
00:50:19.225                             : en:Chapter 14
00:54:24.595                             : en:Chapter 15
00:59:34.488                             : en:Chapter 16
01:02:24.199                             : en:Chapter 17
01:06:54.052                             : en:Chapter 18
01:12:45.361                             : en:Chapter 19
01:15:59.305                             : en:Chapter 20
01:23:46.146                             : en:Chapter 21
01:24:47.916                             : en:Chapter 22
01:27:29.911                             : en:Chapter 23
01:35:16.002                             : en:Chapter 24
01:39:50.443                             : en:Chapter 25
01:42:25.556                             : en:Chapter 26
01:50:31.583                             : en:Chapter 27
01:53:18.959                             : en:Chapter 28










Enlaces de Mega y Fireload solo disponibles para Miembros VIP

Compra tu Membresía VIP y apoya a Club-HD!

ATENCIÓN! Tenemos TODO el material de Club-HD disponible por Mega y Fireload, enlaces 100% activos y online hasta la fecha

Llévate tus cuentas Mega PRO II gratis con tu membresía VIP!
Todos los posts vivos con links de Mega y Fireload.
Todo el material de Club-HD desbloqueado y sin publicidad.

Click Aquí para más información.




Enlaces de Mega y Fireload solo disponibles para Miembros VIP

Compra tu Membresía VIP y apoya a Club-HD!

ATENCIÓN! Tenemos TODO el material de Club-HD disponible por Mega y Fireload, enlaces 100% activos y online hasta la fecha

Llévate tus cuentas Mega PRO II gratis con tu membresía VIP!
Todos los posts vivos con links de Mega y Fireload.
Todo el material de Club-HD desbloqueado y sin publicidad.

Click Aquí para más información.



Para ver este contenido oculto, debes dar click en una de las siguientes reacciones : Like Like, Love Love, Haha Haha, Wow Wow, Sad Sad, Angry Angry
 
Última edición:

dimevaquero

New member
Registro
13 Sep 2012
Mensajes
207
Reacciones
132
Puntos
0
Edad
33

Reputation:

No he visto esta pelicula, pero me han dicho que es muy buena
 

viper

New member
Registro
27 Ago 2012
Mensajes
154
Reacciones
0
Puntos
0

Reputation:

:dplgar: Desc_g_ muchisimas gracias!!!!!!
 

jave1992

New member
Registro
29 Ago 2012
Mensajes
278
Reacciones
3
Puntos
0
Edad
29
Ubicación
Lima

Reputation:

ya la vi, pero la descargare por q es buena esta peli
 

Usuarios Que Están Viendo Este Tema (Total: 1, Miembros: 0, Invitados: 1)

Arriba