Space Jam (1996) m-1080p Dual Latino-Inglés [Subt. Esp-Ing] (Animación. Fantástico)

Maestro Revolver

Well-known member
Miembro del Staff
Administrador
Registro
9 Ago 2012
Mensajes
3.567







TÍTULO ORIGINAL: Space Jam
AÑO: 1996
DURACIÓN: 87 min.
PAÍS: USA
DIRECTOR: Joe Pytka
GUIÓN: Leo Benvenuti, Steve Rudnick, Timothy Harris, Herschel Weingrod
REPARTO: Animation, Michael Jordan, Wayne Knight, Theresa Randle, Bill Murray, Charles Barkley, Patrick Ewing, Larry Bird, Larry Johnson, Shawn Bradley, Tyrone Bogues
PRODUCTORA: Warner Bros. Pictures
GÉNERO: Animación. Comedia. Ciencia ficción. Fantástico. Infantil | Deporte. Baloncesto. Extraterrestres. Looney Tunes
http://www.imdb.com/title/tt0117705/

PREMIOS: 1997: Premios Annie: Logro técnico: 4 nominaciones, incluyendo Mejor largometraje animado






Bugs Bunny y su equipo desafían a los Nerdlucks (un grupo de pequeños extraterrestres) a un partido de baloncesto para decidir si los Looney Tunes permanecen en la Tierra o se trasladan a una lejana galaxia para trabajar en un parque de atracciones de Montaña Tontolandia. Los Nerdlucks cuentan con una poderosa arma secreta que los hace superiores: se han apoderado de las mejores cualidades de las estrellas de la NBA (Charles Barkley y Patrick Ewing). Pero también los Looney poseen un arma secreta: ¡Michael Jordan!
























La pelicula NO tiene ninguna marca... solo colocamos el nombre de esta web en las capturas






Código:
General
Format                           : Matroska
Format version                   : Version 2
File size                        : 3.51 GiB
Duration                         : 1h 27mn
Overall bit rate                 : 5 746 Kbps
Movie name                       : www.club-hd.com
Encoded date                     : UTC 2012-10-20 00:09:03
Writing application              : mkvmerge v5.7.0 ('The Whirlwind') built on Jul  8 2012 20:08:51
Writing library                  : libebml v1.2.3 + libmatroska v1.3.0

Video
ID                               : 1
Format                           : AVC
Format/Info                      : Advanced Video Codec
Format profile                   : Main@L4.0
Format settings, CABAC           : Yes
Format settings, ReFrames        : 4 frames
Codec ID                         : V_MPEG4/ISO/AVC
Duration                         : 1h 27mn
Bit rate                         : 4 500 Kbps
Width                            : 1 910 pixels
Height                           : 1 080 pixels
Display aspect ratio             : 16:9
Frame rate                       : 23.976 fps
Color space                      : YUV
Chroma subsampling               : 4:2:0
Bit depth                        : 8 bits
Scan type                        : Progressive
Bits/(Pixel*Frame)               : 0.091
Stream size                      : 2.66 GiB (76%)
Title                            : www.club-hd.com
Writing library                  : x264 core 112
Language                         : English
Default                          : Yes
Forced                           : No
Color primaries                  : BT.709-5, BT.1361, IEC 61966-2-4, SMPTE RP177
Transfer characteristics         : BT.709-5, BT.1361
Matrix coefficients              : BT.709-5, BT.1361, IEC 61966-2-4 709, SMPTE RP177

Audio #1
ID                               : 2
Format                           : AC-3
Format/Info                      : Audio Coding 3
Mode extension                   : CM (complete main)
Codec ID                         : A_AC3
Duration                         : 1h 27mn
Bit rate mode                    : Constant
Bit rate                         : 640 Kbps
Channel(s)                       : 6 channels
Channel positions                : Front: L C R, Side: L R, LFE
Sampling rate                    : 48.0 KHz
Bit depth                        : 16 bits
Compression mode                 : Lossy
Delay relative to video          : 300ms
Stream size                      : 400 MiB (11%)
Title                            : www.club-hd.com  >>  Latino
Language                         : Spanish
Default                          : Yes
Forced                           : No

Audio #2
ID                               : 3
Format                           : AC-3
Format/Info                      : Audio Coding 3
Mode extension                   : CM (complete main)
Codec ID                         : A_AC3
Duration                         : 1h 27mn
Bit rate mode                    : Constant
Bit rate                         : 640 Kbps
Channel(s)                       : 6 channels
Channel positions                : Front: L C R, Side: L R, LFE
Sampling rate                    : 48.0 KHz
Bit depth                        : 16 bits
Compression mode                 : Lossy
Stream size                      : 400 MiB (11%)
Title                            : www.club-hd.com  >>  Inglés
Language                         : English
Default                          : No
Forced                           : No

Text #1
ID                               : 4
Format                           : UTF-8
Codec ID                         : S_TEXT/UTF8
Codec ID/Info                    : UTF-8 Plain Text
Language                         : Spanish
Default                          : No
Forced                           : No

Text #2
ID                               : 5
Format                           : UTF-8
Codec ID                         : S_TEXT/UTF8
Codec ID/Info                    : UTF-8 Plain Text
Language                         : English
Default                          : No
Forced                           : No

Menu
00:00:00.000                     : en:Chapter 1
00:02:22.642                     : en:Chapter 2
00:05:54.854                     : en:Chapter 3
00:09:01.123                     : en:Chapter 4
00:11:35.986                     : en:Chapter 5
00:14:09.139                     : en:Chapter 6
00:18:14.551                     : en:Chapter 7
00:21:36.628                     : en:Chapter 8
00:24:26.339                     : en:Chapter 9
00:25:47.170                     : en:Chapter 10
00:27:45.413                     : en:Chapter 11
00:30:26.616                     : en:Chapter 12
00:31:19.794                     : en:Chapter 13
00:34:05.084                     : en:Chapter 14
00:36:59.342                     : en:Chapter 15
00:38:11.914                     : en:Chapter 16
00:39:39.418                     : en:Chapter 17
00:42:11.153                     : en:Chapter 18
00:45:54.084                     : en:Chapter 19
00:46:39.838                     : en:Chapter 20
00:47:11.870                     : en:Chapter 21
00:48:05.799                     : en:Chapter 22
00:50:01.039                     : en:Chapter 23
00:53:40.967                     : en:Chapter 24
00:56:56.746                     : en:Chapter 25
00:57:56.973                     : en:Chapter 26
01:00:14.068                     : en:Chapter 27
01:02:27.618                     : en:Chapter 28
01:04:09.720                     : en:Chapter 29
01:06:06.420                     : en:Chapter 30
01:07:42.558                     : en:Chapter 31
01:09:32.793                     : en:Chapter 32
01:11:49.430                     : en:Chapter 33
01:12:30.387                     : en:Chapter 34
01:14:16.452                     : en:Chapter 35
01:15:25.979                     : en:Chapter 36
01:18:23.573                     : en:Chapter 37
01:26:53.208                     : en:Chapter 38








Enlaces de Mega y Google Drive solo disponibles para Miembros VIP

Compra tu Membresía VIP y apoya a Club-HD!

ATENCIÓN! Tenemos TODO el material de Club-HD disponible por Mega y Google Drive, enlaces 100% activos y online hasta la fecha

Llévate tus cuentas Mega PRO III gratis con tu membresía VIP!
Todos los posts vivos con links de Mega y Google Drive.
Todo el material de Club-HD desbloqueado y sin publicidad.

Click Aquí para más información.


Para ver este contenido oculto, debes dar click en una de las siguientes reacciones : Like Like, Love Love, Haha Haha, Wow Wow, Sad Sad, Angry Angry


Para ver este contenido oculto, debes dar click en una de las siguientes reacciones : Like Like, Love Love, Haha Haha, Wow Wow, Sad Sad, Angry Angry


Para ver este contenido oculto, debes dar click en una de las siguientes reacciones : Like Like, Love Love, Haha Haha, Wow Wow, Sad Sad, Angry Angry
 
Última edición por un moderador:

Nosferatu

Well-known member
Súper Moderador
Registro
31 Ago 2012
Mensajes
2.274
Edad
45
Ubicación
Welcome to Hell!!
jejeje. nunca me la espere, esta la vi cuando era un polluelo puberto, con el gran Michael Jordan,si era aficionado a los Bulls. jejeje.:aplausos:

GRACIAS MAESTRO! por este peliculón.:LXR: :aplausos:
 

eljumachi

Well-known member
Miembro VIP
Registro
27 Ago 2012
Mensajes
2.190
excelente película Muchas Gracias R-21, una petición cree que es posible subir la película Big ( quisiera ser grande ) con Tom Hanks de antemano Muchas Gracias Saludos.
 

Usuarios Que Están Viendo Este Tema (Total: 1, Miembros: 0, Invitados: 1)

Quién Leyó Este Tema (Total Miembros: 2)

Arriba