Stargate (1994) Director's Cut 720p BDRip Dual Latino-Inglés [Subt. Esp] (Ciencia ficción)

Maestro Revolver

Well-known member
Miembro del Staff
Administrador
Registro
9 Ago 2012
Mensajes
3.567








TÍTULO ORIGINAL: Stargate
AÑO: 1994
DURACIÓN: 121 min.
PAÍS: USA
DIRECTOR: Roland Emmerich
GUIÓN: Dean Devlin, Roland Emmerich
REPARTO: James Spader, Kurt Russell, Jaye Davidson, Viveca Lindfors, Mili Avital, Alexis Cruz, Djimon Hounsou, Richard Kind, Erick Avari, John Diehl, French Stewart, Derek Webster, Christopher John Fields, Leon Rippy, Rae Allen, Carlos Lauchu
PRODUCTORA: Metro-Goldwyn-Mayer (MGM) / United Artists
GÉNERO: Ciencia ficción. Fantástico. Aventuras. Acción | Extraterrestres
: http://www.imdb.com/title/tt0111282/






Un coronel y un científico, movidos por distintos intereses, investigan el misterioso hallazgo en unas excavaciones de un extraño artefacto al que llaman "Puerta de las Estrellas". Acompañados de un equipo de reconocimiento, atraviesan la Puerta y son transportados a un lejano planeta.
























La pelicula NO tiene ninguna marca... solo colocamos el nombre de esta web en las capturas






Código:
General
Format                                   : Matroska
Format version                           : Version 2
File size                                : 3.23 GiB
Duration                                 : 2h 9mn
Overall bit rate                         : 3 564 Kbps
Movie name                               : www.club-hd.com
Encoded date                             : UTC 2013-09-24 22:42:35
Writing application                      : mkvmerge v5.7.0 ('The Whirlwind') built on Jul  8 2012 20:08:51
Writing library                          : libebml v1.2.3 + libmatroska v1.3.0

Video
ID                                       : 1
Format                                   : AVC
Format/Info                              : Advanced Video Codec
Format profile                           : High@L4.1
Format settings, CABAC                   : Yes
Format settings, ReFrames                : 9 frames
Codec ID                                 : V_MPEG4/ISO/AVC
Duration                                 : 2h 9mn
Bit rate                                 : 2 668 Kbps
Width                                    : 1 280 pixels
Height                                   : 534 pixels
Display aspect ratio                     : 2.40:1
Frame rate mode                          : Constant
Frame rate                               : 23.976 fps
Color space                              : YUV
Chroma subsampling                       : 4:2:0
Bit depth                                : 8 bits
Scan type                                : Progressive
Bits/(Pixel*Frame)                       : 0.163
Stream size                              : 2.36 GiB (73%)
Title                                    : www.club-hd.com
Writing library                          : x264 core 129 r2230 1cffe9f
Language                                 : English
Default                                  : Yes
Forced                                   : No

Audio #1
ID                                       : 2
Format                                   : AC-3
Format/Info                              : Audio Coding 3
Mode extension                           : CM (complete main)
Format settings, Endianness              : Big
Codec ID                                 : A_AC3
Duration                                 : 2h 9mn
Bit rate mode                            : Constant
Bit rate                                 : 256 Kbps
Channel(s)                               : 2 channels
Channel positions                        : Front: L R
Sampling rate                            : 48.0 KHz
Bit depth                                : 16 bits
Compression mode                         : Lossy
Stream size                              : 238 MiB (7%)
Title                                    : www.club-hd.com  >>  Latino
Language                                 : Spanish
Default                                  : Yes
Forced                                   : No

Audio #2
ID                                       : 3
Format                                   : AC-3
Format/Info                              : Audio Coding 3
Mode extension                           : CM (complete main)
Format settings, Endianness              : Big
Codec ID                                 : A_AC3
Duration                                 : 2h 9mn
Bit rate mode                            : Constant
Bit rate                                 : 640 Kbps
Channel(s)                               : 6 channels
Channel positions                        : Front: L C R, Side: L R, LFE
Sampling rate                            : 48.0 KHz
Bit depth                                : 16 bits
Compression mode                         : Lossy
Stream size                              : 595 MiB (18%)
Title                                    : www.club-hd.com  >>  Inglés
Language                                 : English
Default                                  : No
Forced                                   : No

Text #1
ID                                       : 4
Format                                   : UTF-8
Codec ID                                 : S_TEXT/UTF8
Codec ID/Info                            : UTF-8 Plain Text
Title                                    : Forzados
Language                                 : Spanish
Default                                  : Yes
Forced                                   : No

Text #2
ID                                       : 5
Format                                   : UTF-8
Codec ID                                 : S_TEXT/UTF8
Codec ID/Info                            : UTF-8 Plain Text
Title                                    : Completos
Language                                 : Spanish
Default                                  : No
Forced                                   : No

Menu
00:00:00.000                             : en:Chapter 1
00:04:00.365                             : en:Chapter 2
00:06:42.068                             : en:Chapter 3
00:10:24.791                             : en:Chapter 4
00:12:08.603                             : en:Chapter 5
00:21:35.294                             : en:Chapter 6
00:28:50.354                             : en:Chapter 7
00:33:23.418                             : en:Chapter 8
00:36:06.081                             : en:Chapter 9
00:44:40.136                             : en:Chapter 10
00:51:14.988                             : en:Chapter 11
00:55:36.166                             : en:Chapter 12
01:01:27.142                             : en:Chapter 13
01:12:55.955                             : en:Chapter 14
01:16:49.188                             : en:Chapter 15
01:23:59.284                             : en:Chapter 16
01:27:04.761                             : en:Chapter 17
01:31:51.547                             : en:Chapter 18
01:43:10.059                             : en:Chapter 19
01:45:41.585                             : en:Chapter 20
01:49:30.105                             : en:Chapter 21
01:58:17.173                             : en:Chapter 22
02:01:32.493                             : en:Chapter 23
02:03:25.356                             : en:Chapter 24






Nota: Audio latino editado para la versión Director's Cut. Ya saben, hay partes en Inglés, para esas partes también hice subtítulos forzados. Espero que lo disfruten :D








Enlaces de Mega y Google Drive solo disponibles para Miembros VIP

Compra tu Membresía VIP y apoya a Club-HD!

ATENCIÓN! Tenemos TODO el material de Club-HD disponible por Mega y Google Drive, enlaces 100% activos y online hasta la fecha

Llévate tus cuentas Mega PRO III gratis con tu membresía VIP!
Todos los posts vivos con links de Mega y Google Drive.
Todo el material de Club-HD desbloqueado y sin publicidad.

Click Aquí para más información.


Para ver este contenido oculto, debes dar click en una de las siguientes reacciones : Like Like, Love Love, Haha Haha, Wow Wow, Sad Sad, Angry Angry



 
Última edición por un moderador:

Usuarios Que Están Viendo Este Tema (Total: 1, Miembros: 0, Invitados: 1)

Quién Leyó Este Tema (Total Miembros: 3)

Arriba