• Este aviso va dirigido a todos los nuevos miembros recien llegados a Club-HD. Les recordamos que la direccion URL de este sitio web es , asi que deben acceder únicamente por esta URL. Sean todos bienvenidos al Club!

Stargirl (2020) S01E01 - Pilot 1080p DCU WEB-DL Inglés [Subt. Esp] (Serie de TV. Acción

Bebesaurio

Novio de Vizard
Miembro del Staff
Moderador
Uploader
Registrado
12 Mar 2018
Mensajes
556
Puntos de reacción
13,334
Puntos
93
Edad
21




SINOPSIS

Stargirl es una superheroína de DC Cómics que se oculta bajo la identidad de la estudiante de instituto Courtney Whitmore.



MEDIA INFO


General
Unique ID : 66828498070603078587409433185738328409 (0x3246B357B878485C48DC8614FD3C8959)
Format : Matroska
Format version : Version 4
File size : 2.09 GiB
Duration : 53 min 6 s
Overall bit rate : 5 625 kb/s
Encoded date : UTC 2020-05-19 00:58:28
Writing application : mkvmerge v32.0.0 ('Astral Progressions') 64-bit
Writing library : libebml v1.3.7 + libmatroska v1.5.0

Video
ID : 1
Format : AVC
Format/Info : Advanced Video Codec
Format profile : Baseline@L4
Format settings : 3 Ref Frames
Format settings, CABAC : No
Format settings, Reference frames : 3 frames
Format settings, GOP : M=1, N=48
Codec ID : V_MPEG4/ISO/AVC
Duration : 53 min 6 s
Bit rate : 4 982 kb/s
Width : 1 920 pixels
Height : 1 080 pixels
Display aspect ratio : 16:9
Frame rate mode : Constant
Frame rate : 23.976 (24000/1001) FPS
Color space : YUV
Chroma subsampling : 4:2:0
Bit depth : 8 bits
Scan type : Progressive
Bits/(Pixel*Frame) : 0.100
Stream size : 1.85 GiB (89%)
Title : DCU WEB-DL
Writing library : Zencoder Video Encoding System
Language : English
Default : Yes
Forced : No
Color range : Limited
Color primaries : BT.709
Transfer characteristics : BT.709
Matrix coefficients : BT.709

Audio
ID : 2
Format : E-AC-3
Format/Info : Enhanced AC-3
Commercial name : Dolby Digital Plus
Codec ID : A_EAC3
Duration : 53 min 6 s
Bit rate mode : Constant
Bit rate : 640 kb/s
Channel(s) : 6 channels
Channel layout : L R C LFE Ls Rs
Sampling rate : 48.0 kHz
Frame rate : 31.250 FPS (1536 SPF)
Compression mode : Lossy
Stream size : 243 MiB (11%)
Language : English
Service kind : Complete Main
Default : Yes
Forced : No

Text #1
ID : 3
Format : UTF-8
Codec ID : S_TEXT/UTF8
Codec ID/Info : UTF-8 Plain Text
Duration : 52 min 10 s
Bit rate : 49 b/s
Count of elements : 564
Stream size : 18.9 KiB (0%)
Title : Latino
Language : Spanish
Default : Yes
Forced : Yes

Text #2
ID : 4
Format : UTF-8
Codec ID : S_TEXT/UTF8
Codec ID/Info : UTF-8 Plain Text
Duration : 52 min 39 s
Bit rate : 54 b/s
Count of elements : 712
Stream size : 21.2 KiB (0%)
Title : English (SDH)
Language : English
Default : No
Forced : No



CAPTURAS









DESCARGA

ENLACES VIP


Enlaces de Mega y Google Drive solo disponibles para Miembros VIP

Compra tu Membresía VIP y apoya a Club-HD!

ATENCIÓN! Tenemos TODO el material de Club-HD disponible por Mega y Google Drive, enlaces 100% activos y online hasta la fecha

Llévate tus cuentas Mega PRO II gratis con tu membresía VIP!
Todos los posts vivos con links de Mega y Google Drive.
Todo el material de Club-HD desbloqueado y sin publicidad.

Click Aquí para más información.

Enlaces de Mega y Google Drive solo disponibles para Miembros VIP

Compra tu Membresía VIP y apoya a Club-HD!

ATENCIÓN! Tenemos TODO el material de Club-HD disponible por Mega y Google Drive, enlaces 100% activos y online hasta la fecha

Llévate tus cuentas Mega PRO II gratis con tu membresía VIP!
Todos los posts vivos con links de Mega y Google Drive.
Todo el material de Club-HD desbloqueado y sin publicidad.

Click Aquí para más información.


ENLACES FREE


Para ver este contenido oculto, debes dar click en una de las siguientes reacciones: Like Like, Love Love, Haha Haha, Wow Wow, Sad Sad, Angry Angry

Para ver este contenido oculto, debes dar click en una de las siguientes reacciones: Like Like, Love Love, Haha Haha, Wow Wow, Sad Sad, Angry Angry

Para ver este contenido oculto, debes dar click en una de las siguientes reacciones: Like Like, Love Love, Haha Haha, Wow Wow, Sad Sad, Angry Angry

CONTRASEÑA

Código:
www.club-hd.com
 

zamwise

Member
Miembro VIP
Registrado
8 Sep 2017
Mensajes
160
Puntos de reacción
16
Puntos
18




SINOPSIS

Stargirl es una superheroína de DC Cómics que se oculta bajo la identidad de la estudiante de instituto Courtney Whitmore.



MEDIA INFO


General
Unique ID : 66828498070603078587409433185738328409 (0x3246B357B878485C48DC8614FD3C8959)
Format : Matroska
Format version : Version 4
File size : 2.09 GiB
Duration : 53 min 6 s
Overall bit rate : 5 625 kb/s
Encoded date : UTC 2020-05-19 00:58:28
Writing application : mkvmerge v32.0.0 ('Astral Progressions') 64-bit
Writing library : libebml v1.3.7 + libmatroska v1.5.0

Video
ID : 1
Format : AVC
Format/Info : Advanced Video Codec
Format profile : Baseline@L4
Format settings : 3 Ref Frames
Format settings, CABAC : No
Format settings, Reference frames : 3 frames
Format settings, GOP : M=1, N=48
Codec ID : V_MPEG4/ISO/AVC
Duration : 53 min 6 s
Bit rate : 4 982 kb/s
Width : 1 920 pixels
Height : 1 080 pixels
Display aspect ratio : 16:9
Frame rate mode : Constant
Frame rate : 23.976 (24000/1001) FPS
Color space : YUV
Chroma subsampling : 4:2:0
Bit depth : 8 bits
Scan type : Progressive
Bits/(Pixel*Frame) : 0.100
Stream size : 1.85 GiB (89%)
Title : DCU WEB-DL
Writing library : Zencoder Video Encoding System
Language : English
Default : Yes
Forced : No
Color range : Limited
Color primaries : BT.709
Transfer characteristics : BT.709
Matrix coefficients : BT.709

Audio
ID : 2
Format : E-AC-3
Format/Info : Enhanced AC-3
Commercial name : Dolby Digital Plus
Codec ID : A_EAC3
Duration : 53 min 6 s
Bit rate mode : Constant
Bit rate : 640 kb/s
Channel(s) : 6 channels
Channel layout : L R C LFE Ls Rs
Sampling rate : 48.0 kHz
Frame rate : 31.250 FPS (1536 SPF)
Compression mode : Lossy
Stream size : 243 MiB (11%)
Language : English
Service kind : Complete Main
Default : Yes
Forced : No

Text #1
ID : 3
Format : UTF-8
Codec ID : S_TEXT/UTF8
Codec ID/Info : UTF-8 Plain Text
Duration : 52 min 10 s
Bit rate : 49 b/s
Count of elements : 564
Stream size : 18.9 KiB (0%)
Title : Latino
Language : Spanish
Default : Yes
Forced : Yes

Text #2
ID : 4
Format : UTF-8
Codec ID : S_TEXT/UTF8
Codec ID/Info : UTF-8 Plain Text
Duration : 52 min 39 s
Bit rate : 54 b/s
Count of elements : 712
Stream size : 21.2 KiB (0%)
Title : English (SDH)
Language : English
Default : No
Forced : No



CAPTURAS









DESCARGA

ENLACES VIP


[Hidden content]


[Hidden content]



ENLACES FREE


[Hidden content]


[Hidden content]


[Hidden content]


CONTRASEÑA

Código:
www.club-hd.com
Gracias!
 

cripp

Well-known member
Registrado
27 Ago 2012
Mensajes
7,925
Puntos de reacción
449
Puntos
113
Gracias por compartir
 

opv_2011

Active member
Registrado
3 Feb 2016
Mensajes
721
Puntos de reacción
41
Puntos
28
Edad
46




SINOPSIS

Stargirl es una superheroína de DC Cómics que se oculta bajo la identidad de la estudiante de instituto Courtney Whitmore.



MEDIA INFO


General
Unique ID : 66828498070603078587409433185738328409 (0x3246B357B878485C48DC8614FD3C8959)
Format : Matroska
Format version : Version 4
File size : 2.09 GiB
Duration : 53 min 6 s
Overall bit rate : 5 625 kb/s
Encoded date : UTC 2020-05-19 00:58:28
Writing application : mkvmerge v32.0.0 ('Astral Progressions') 64-bit
Writing library : libebml v1.3.7 + libmatroska v1.5.0

Video
ID : 1
Format : AVC
Format/Info : Advanced Video Codec
Format profile : Baseline@L4
Format settings : 3 Ref Frames
Format settings, CABAC : No
Format settings, Reference frames : 3 frames
Format settings, GOP : M=1, N=48
Codec ID : V_MPEG4/ISO/AVC
Duration : 53 min 6 s
Bit rate : 4 982 kb/s
Width : 1 920 pixels
Height : 1 080 pixels
Display aspect ratio : 16:9
Frame rate mode : Constant
Frame rate : 23.976 (24000/1001) FPS
Color space : YUV
Chroma subsampling : 4:2:0
Bit depth : 8 bits
Scan type : Progressive
Bits/(Pixel*Frame) : 0.100
Stream size : 1.85 GiB (89%)
Title : DCU WEB-DL
Writing library : Zencoder Video Encoding System
Language : English
Default : Yes
Forced : No
Color range : Limited
Color primaries : BT.709
Transfer characteristics : BT.709
Matrix coefficients : BT.709

Audio
ID : 2
Format : E-AC-3
Format/Info : Enhanced AC-3
Commercial name : Dolby Digital Plus
Codec ID : A_EAC3
Duration : 53 min 6 s
Bit rate mode : Constant
Bit rate : 640 kb/s
Channel(s) : 6 channels
Channel layout : L R C LFE Ls Rs
Sampling rate : 48.0 kHz
Frame rate : 31.250 FPS (1536 SPF)
Compression mode : Lossy
Stream size : 243 MiB (11%)
Language : English
Service kind : Complete Main
Default : Yes
Forced : No

Text #1
ID : 3
Format : UTF-8
Codec ID : S_TEXT/UTF8
Codec ID/Info : UTF-8 Plain Text
Duration : 52 min 10 s
Bit rate : 49 b/s
Count of elements : 564
Stream size : 18.9 KiB (0%)
Title : Latino
Language : Spanish
Default : Yes
Forced : Yes

Text #2
ID : 4
Format : UTF-8
Codec ID : S_TEXT/UTF8
Codec ID/Info : UTF-8 Plain Text
Duration : 52 min 39 s
Bit rate : 54 b/s
Count of elements : 712
Stream size : 21.2 KiB (0%)
Title : English (SDH)
Language : English
Default : No
Forced : No



CAPTURAS









DESCARGA

ENLACES VIP


[Hidden content]


[Hidden content]



ENLACES FREE


[Hidden content]


[Hidden content]


[Hidden content]


CONTRASEÑA

Código:
www.club-hd.com
Gracias por esta novedad!
 

ERRE

Well-known member
Registrado
28 Ago 2012
Mensajes
2,177
Puntos de reacción
160
Puntos
63
Gracias...😁
 

pgeronimo

Active member
Registrado
28 Ago 2012
Mensajes
341
Puntos de reacción
102
Puntos
43
Edad
53
Muchas gracias por el aporte.
 

Usuarios Que Están Viendo Este Tema (Total: 1, Miembros: 0, Invitados: 1)

Arriba