Starship Troopers (1997) m-720p Dual Latino-Inglés [Subt. Esp-Ing] (Ciencia ficción. Fantástico. Acción)

Maestro Revolver

Well-known member
Miembro del Staff
Administrador
Registro
9 Ago 2012
Mensajes
3.569
Reacciones
59.361
Puntos
113

Reputation:









TÍTULO ORIGINAL: Starship Troopers
AÑO: 1997
DURACIÓN: 129 min.
PAÍS: USA
DIRECTOR: Paul Verhoeven
GUIÓN: Edward Neumeier (Novela: Robert Henlein)
REPARTO: Casper Van Dien, Dina Meyer, Denise Richards, Michael Ironside, Jake Busey, Clancy Brown, Neil Patrick Harris, Patrick Muldoon
PRODUCTORA: Sony Pictures
GÉNERO: Ciencia ficción. Fantástico. Acción | Sátira. Extraterrestres. Película de culto
: http://www.imdb.com/title/tt0120201/

PREMIOS: 1997: Nominada al Oscar: Mejores efectos visuales






En una sociedad futura, se arenga a los estudiantes para que se alisten en el ejército y se conviertan en ciudadanos. Johnny Rico se alista para seguir a su novia, pero acabará participando en una cruenta guerra contra los insectos del planeta Klendathu, tras la muerte de sus padres a causa de un meteoro lanzado por esos insectos contra su ciudad natal.
























La pelicula NO tiene ninguna marca... solo colocamos el nombre de esta web en las capturas






Código:
General
Format                                   : Matroska
Format version                           : Version 2
File size                                : 3.61 GiB
Duration                                 : 2h 9mn
Overall bit rate                         : 3 986 Kbps
Movie name                               : www.club-hd.com
Encoded date                             : UTC 2013-03-09 12:36:05
Writing application                      : mkvmerge v5.7.0 ('The Whirlwind') built on Jul  8 2012 20:08:51
Writing library                          : libebml v1.2.3 + libmatroska v1.3.0

Video
ID                                       : 1
Format                                   : AVC
Format/Info                              : Advanced Video Codec
Format profile                           : High@L4.1
Format settings, CABAC                   : Yes
Format settings, ReFrames                : 8 frames
Codec ID                                 : V_MPEG4/ISO/AVC
Duration                                 : 2h 9mn
Bit rate                                 : 3 000 Kbps
Width                                    : 1 280 pixels
Height                                   : 688 pixels
Display aspect ratio                     : 1.85:1
Frame rate mode                          : Constant
Frame rate                               : 23.976 fps
Color space                              : YUV
Chroma subsampling                       : 4:2:0
Bit depth                                : 8 bits
Scan type                                : Progressive
Bits/(Pixel*Frame)                       : 0.142
Stream size                              : 2.61 GiB (72%)
Title                                    : www.club-hd.com
Writing library                          : x264 core 120
Language                                 : English
Default                                  : Yes
Forced                                   : No
Color primaries                          : BT.709
Transfer characteristics                 : BT.709
Matrix coefficients                      : BT.709

Audio #1
ID                                       : 2
Format                                   : AC-3
Format/Info                              : Audio Coding 3
Mode extension                           : CM (complete main)
Format settings, Endianness              : Big
Codec ID                                 : A_AC3
Duration                                 : 2h 9mn
Bit rate mode                            : Constant
Bit rate                                 : 384 Kbps
Channel(s)                               : 6 channels
Channel positions                        : Front: L C R, Side: L R, LFE
Sampling rate                            : 48.0 KHz
Bit depth                                : 16 bits
Compression mode                         : Lossy
Delay relative to video                  : 1s 0ms
Stream size                              : 356 MiB (10%)
Title                                    : www.club-hd.com  >>  Latino AC3  5.1
Language                                 : Spanish
Default                                  : Yes
Forced                                   : No

Audio #2
ID                                       : 3
Format                                   : AC-3
Format/Info                              : Audio Coding 3
Mode extension                           : CM (complete main)
Format settings, Endianness              : Big
Codec ID                                 : A_AC3
Duration                                 : 2h 9mn
Bit rate mode                            : Constant
Bit rate                                 : 640 Kbps
Channel(s)                               : 6 channels
Channel positions                        : Front: L C R, Side: L R, LFE
Sampling rate                            : 48.0 KHz
Bit depth                                : 16 bits
Compression mode                         : Lossy
Stream size                              : 593 MiB (16%)
Title                                    : www.club-hd.com  >>  Inglés AC3 5.1
Language                                 : English
Default                                  : No
Forced                                   : No

Text #1
ID                                       : 4
Format                                   : UTF-8
Codec ID                                 : S_TEXT/UTF8
Codec ID/Info                            : UTF-8 Plain Text
Title                                    : Latino-Forzados
Language                                 : Spanish
Default                                  : Yes
Forced                                   : No

Text #2
ID                                       : 5
Format                                   : UTF-8
Codec ID                                 : S_TEXT/UTF8
Codec ID/Info                            : UTF-8 Plain Text
Language                                 : Spanish
Default                                  : No
Forced                                   : No

Text #3
ID                                       : 6
Format                                   : UTF-8
Codec ID                                 : S_TEXT/UTF8
Codec ID/Info                            : UTF-8 Plain Text
Language                                 : English
Default                                  : No
Forced                                   : No

Menu
00:00:00.000                             : :01
00:00:33.075                             : :02
00:02:47.250                             : :03
00:23:44.506                             : :04
00:31:25.008                             : :05
00:37:30.290                             : :06
00:44:38.551                             : :07
00:48:45.089                             : :08
00:52:39.406                             : :09
00:58:03.480                             : :10
01:11:05.970                             : :11
01:18:50.309                             : :12
01:23:03.645                             : :13
01:41:24.120                             : :14
01:50:56.900                             : :15
01:55:28.171                             : :16
01:59:21.154                             : :17










Enlaces de Mega y Fireload solo disponibles para Miembros VIP

Compra tu Membresía VIP y apoya a Club-HD!

ATENCIÓN! Tenemos TODO el material de Club-HD disponible por Mega y Fireload, enlaces 100% activos y online hasta la fecha

Llévate tus cuentas Mega PRO II gratis con tu membresía VIP!
Todos los posts vivos con links de Mega y Fireload.
Todo el material de Club-HD desbloqueado y sin publicidad.

Click Aquí para más información.




Enlaces de Mega y Fireload solo disponibles para Miembros VIP

Compra tu Membresía VIP y apoya a Club-HD!

ATENCIÓN! Tenemos TODO el material de Club-HD disponible por Mega y Fireload, enlaces 100% activos y online hasta la fecha

Llévate tus cuentas Mega PRO II gratis con tu membresía VIP!
Todos los posts vivos con links de Mega y Fireload.
Todo el material de Club-HD desbloqueado y sin publicidad.

Click Aquí para más información.



Para ver este contenido oculto, debes dar click en una de las siguientes reacciones : Like Like, Love Love, Haha Haha, Wow Wow, Sad Sad, Angry Angry

 
Última edición:

Howl

Well-known member
Miembro VIP
Registro
28 Ago 2012
Mensajes
1.765
Reacciones
87
Puntos
48

Reputation:

que casualidad justamente esta mañana estaba revisando las pelis dvdrip que tengo y me encontre con esta trilogia y pense que seria bueno tenerlas en hd y pues aqui esta la sorpresita, muchas gracias R y pos espero las otras 3, pues me imagino que tendras pensado subir las demas

Tb_up3
 

Maestro Revolver

Well-known member
Miembro del Staff
Administrador
Registro
9 Ago 2012
Mensajes
3.569
Reacciones
59.361
Puntos
113

Reputation:

que casualidad justamente esta mañana estaba revisando las pelis dvdrip que tengo y me encontre con esta trilogia y pense que seria bueno tenerlas en hd y pues aqui esta la sorpresita, muchas gracias R y pos espero las otras 3, pues me imagino que tendras pensado subir las demas

Tb_up3
Otro dia subire las que faltan Tb_up3
 

Pedrum

The Buckminster
Registro
28 Ago 2012
Mensajes
1.092
Reacciones
1.546
Puntos
113
Ubicación
Bahia Blanca

Reputation:

Esta es la mas mejor de todas jejeje

Gracias por subirla y a Trail por pedirla..

Saludos! victory
 

Lug

Well-known member
Registro
24 Oct 2012
Mensajes
1.691
Reacciones
37
Puntos
48
Edad
62

Reputation:

Desc_g_
Siempre listo......
 

Geodiego

Active member
Registro
27 Ago 2012
Mensajes
166
Reacciones
46
Puntos
28
Edad
33

Reputation:

Espectacular te re pasaste :dplgar:
 

Usuarios Que Están Viendo Este Tema (Total: 1, Miembros: 0, Invitados: 1)

Arriba