Startup S01-03 (2016-2018) 1080p AMZN WEB-DL Dual Latino-Inglés [Subt.Esp] (Drama)

Tr3vor

Well-known member
Uploader
Colaborador
Registro
17 May 2018
Mensajes
1.270
Reacciones
12.987
Puntos
113
Edad
32

Reputation:






Para este grupo, obligado a crear una empresa de tecnología con dinero negro procedente de lugares insospechados a la vez que forman vínculos con una peligrosa banda haitiana, la lucha por crear un negocio no es nada comparado con la lucha por sobrevivir, ya que tienen a un agente del FBI pisándoles los talones con el poder de ayudar o destruir a todos a su paso, no siempre con buena intención.


MEDIAINFO
Código:
Format                      : Matroska
Format version              : Version 4
File size                   : 4.06 GiB
Duration                    : 54 min 0 s
Overall bit rate            : 10.8 Mb/s
Encoded date                : UTC 2021-10-01 03:40:22
Writing application         : mkvmerge v58.0.0 ('Supper's Ready') 32-bit
Writing library             : libebml v1.4.2 + libmatroska v1.6.4

Video
ID                          : 1
Format                      : AVC
Format/Info                 : Advanced Video Codec
Format profile              : High@L4
Format settings             : CABAC / 4 Ref Frames
Format settings, CABAC      : Yes
Format settings, Reference  : 4 frames
Codec ID                    : V_MPEG4/ISO/AVC
Duration                    : 53 min 58 s
Bit rate mode               : Constant
Bit rate                    : 9 482 kb/s
Nominal bit rate            : 10 000 kb/s
Width                       : 1 920 pixels
Height                      : 1 080 pixels
Display aspect ratio        : 16:9
Frame rate mode             : Constant
Frame rate                  : 23.976 (24000/1001) FPS
Color space                 : YUV
Chroma subsampling          : 4:2:0
Bit depth                   : 8 bits
Scan type                   : Progressive
Bits/(Pixel*Frame)          : 0.191
Stream size                 : 3.57 GiB (88%)
Default                     : Yes
Forced                      : No
Color range                 : Limited
Color primaries             : BT.709
Transfer characteristics    : BT.709
Matrix coefficients         : BT.709

Audio #1
ID                          : 2
Format                      : E-AC-3
Format/Info                 : Enhanced AC-3
Commercial name             : Dolby Digital Plus
Codec ID                    : A_EAC3
Duration                    : 53 min 58 s
Bit rate mode               : Constant
Bit rate                    : 640 kb/s
Channel(s)                  : 6 channels
Channel layout              : L R C LFE Ls Rs
Sampling rate               : 48.0 kHz
Frame rate                  : 31.250 FPS (1536 SPF)
Compression mode            : Lossy
Stream size                 : 247 MiB (6%)
Title                       : English
Language                    : English
Service kind                : Complete Main
Default                     : Yes
Forced                      : No

Audio #2
ID                          : 3
Format                      : E-AC-3
Format/Info                 : Enhanced AC-3
Commercial name             : Dolby Digital Plus
Codec ID                    : A_EAC3
Duration                    : 53 min 58 s
Bit rate mode               : Constant
Bit rate                    : 640 kb/s
Channel(s)                  : 6 channels
Channel layout              : L R C LFE Ls Rs
Sampling rate               : 48.0 kHz
Frame rate                  : 31.250 FPS (1536 SPF)
Compression mode            : Lossy
Stream size                 : 247 MiB (6%)
Title                       : Spanish
Language                    : Spanish
Service kind                : Complete Main
Default                     : No
Forced                      : No

Text #1
ID                          : 4
Format                      : UTF-8
Codec ID                    : S_TEXT/UTF8
Codec ID/Info               : UTF-8 Plain Text
Duration                    : 50 min 53 s
Bit rate                    : 62 b/s
Count of elements           : 720
Stream size                 : 23.2 KiB (0%)
Title                       : English [Full]
Language                    : English
Default                     : No
Forced                      : No

Text #2
ID                          : 5
Format                      : UTF-8
Codec ID                    : S_TEXT/UTF8
Codec ID/Info               : UTF-8 Plain Text
Duration                    : 52 min 48 s
Bit rate                    : 64 b/s
Count of elements           : 740
Stream size                 : 25.1 KiB (0%)
Title                       : English [SDH]
Language                    : English
Default                     : No
Forced                      : No

Text #3
ID                          : 6
Format                      : UTF-8
Codec ID                    : S_TEXT/UTF8
Codec ID/Info               : UTF-8 Plain Text
Duration                    : 52 min 3 s
Bit rate                    : 58 b/s
Count of elements           : 725
Stream size                 : 22.4 KiB (0%)
Title                       : Castilian [Full]
Language                    : Spanish
Default                     : No
Forced                      : No

Text #4
ID                          : 7
Format                      : UTF-8
Codec ID                    : S_TEXT/UTF8
Codec ID/Info               : UTF-8 Plain Text
Duration                    : 52 min 3 s
Bit rate                    : 56 b/s
Count of elements           : 727
Stream size                 : 21.7 KiB (0%)
Title                       : Spanish [Full]
Language                    : Spanish
Default                     : No
Forced                      : No

Menu
00:00:00.000                : Studio Logo
00:00:06.000                : Phil Rask visits an old contact
00:05:41.000                : Opening Credits
00:06:06.000                : Izzy loses her server room
00:07:56.000                : Nick goes through a boring day
00:10:15.000                : Izzy brings her server to home
00:12:19.000                : Phil stops by to visit his ex
00:15:25.000                : Nick stops by his dad's hosue
00:18:48.000                : Break
00:18:49.000                : Ronnie's family wakes him up for the day
00:22:24.000                : Ronnie questions Mo
00:27:02.000                : Break
00:27:03.000                : Izzy makes her pitch
00:31:31.000                : Andy stands Phil up, Nick tells Taylor about Izzy's pitch
00:35:56.000                : Nick takes the drive from his father
00:36:45.000                : Jey-Jey arrives
00:39:35.000                : Izzy finds her investor
00:42:54.000                : Break
00:42:55.000                : Ronnie finds out he was robbed
00:45:10.000                : Nick finds a federal agent waiting for him at work
00:51:18.000                : Nick returns home
00:52:13.000                : End Credits









Resolución de video: 1920x1080 (AVC, High@L4)
Formato de audio: EAC3 640 kb/s 5.1 (Español latino), EAC3 640 kb/s 5.1 (Inglés)
Formato de subtítulos: SubRip (.srt) (Completos & Forzados)
Lista de audio: Latino e inglés
Fuente: Prime Video





Enlaces de Mega y Fireload solo disponibles para Miembros VIP

Compra tu Membresía VIP y apoya a Club-HD!

ATENCIÓN! Tenemos TODO el material de Club-HD disponible por Mega y Fireload, enlaces 100% activos y online hasta la fecha

Llévate tus cuentas Mega PRO II gratis con tu membresía VIP!
Todos los posts vivos con links de Mega y Fireload.
Todo el material de Club-HD desbloqueado y sin publicidad.

Click Aquí para más información.


Enlaces de Mega y Fireload solo disponibles para Miembros VIP

Compra tu Membresía VIP y apoya a Club-HD!

ATENCIÓN! Tenemos TODO el material de Club-HD disponible por Mega y Fireload, enlaces 100% activos y online hasta la fecha

Llévate tus cuentas Mega PRO II gratis con tu membresía VIP!
Todos los posts vivos con links de Mega y Fireload.
Todo el material de Club-HD desbloqueado y sin publicidad.

Click Aquí para más información.
 

Tr3vor

Well-known member
Uploader
Colaborador
Registro
17 May 2018
Mensajes
1.270
Reacciones
12.987
Puntos
113
Edad
32

Reputation:

apartir de mañana subo a mega pero esta todas disponible en Google Drive
 

cripp

Well-known member
Registro
27 Ago 2012
Mensajes
9.683
Reacciones
845
Puntos
113

Reputation:

Gracias por compartir
 

Usuarios Que Están Viendo Este Tema (Total: 1, Miembros: 0, Invitados: 1)

Arriba