Step Up Revolution (2012) m-720p Dual Latino-Inglés [Subt. Esp-Ing] (Drama)

Maestro Revolver

Well-known member
Miembro del Staff
Administrador
Registro
9 Ago 2012
Mensajes
3.569
Reacciones
59.361
Puntos
113

Reputation:









TÍTULO ORIGINAL: Step Up Revolution (Step Up 4)
AÑO: 2012
DURACIÓN: 99 min.
PAÍS: USA
DIRECTOR: Scott Speer
GUIÓN: Jenny Mayer
REPARTO: Kathryn McCormick, Ryan Guzman, Stephen Boss, Chadd Smith, Megan Boone, Jessica Guadix, Morgane Slemp, Cleopatra Coleman, Tommy Dewey, Tamara Jones
PRODUCTORA: Summit Entertiainment / Offspring Entertainment
GÉNERO: Drama | Secuela. 3-D. Baile
http://www.imdb.com/title/tt1800741/






La historia se centra en una joven "niña de papá", que se enamora del líder de un grupo de baile que organiza flashmobs por amor al arte. Cuando el padre de ésta quiere demoler el barrio donde viven los bailarines, la chica insta sus compañeros de baile a que utilicen los flashmobs para reivindicar. Nueva entrega de la saga Step Up.
























La pelicula NO tiene ninguna marca... solo colocamos el nombre de esta web en las capturas






Código:
General
Format                           : Matroska
Format version                   : Version 2
File size                        : 2.65 GiB
Duration                         : 1h 38mn
Overall bit rate                 : 3 849 Kbps
Movie name                       : www.club-hd.com
Encoded date                     : UTC 2012-11-10 19:08:12
Writing application              : mkvmerge v5.7.0 ('The Whirlwind') built on Jul  8 2012 20:08:51
Writing library                  : libebml v1.2.3 + libmatroska v1.3.0

Video
ID                               : 1
Format                           : AVC
Format/Info                      : Advanced Video Codec
Format profile                   : High@L4.1
Format settings, CABAC           : Yes
Format settings, ReFrames        : 9 frames
Codec ID                         : V_MPEG4/ISO/AVC
Duration                         : 1h 38mn
Bit rate                         : 2 750 Kbps
Width                            : 1 280 pixels
Height                           : 534 pixels
Display aspect ratio             : 2.40:1
Frame rate                       : 23.976 fps
Color space                      : YUV
Chroma subsampling               : 4:2:0
Bit depth                        : 8 bits
Scan type                        : Progressive
Bits/(Pixel*Frame)               : 0.168
Stream size                      : 1.85 GiB (70%)
Title                            : www.club-hd.com
Writing library                  : x264 core 128 r2216 198a7ea
Language                         : English
Default                          : Yes
Forced                           : No

Audio #1
ID                               : 2
Format                           : AC-3
Format/Info                      : Audio Coding 3
Mode extension                   : CM (complete main)
Codec ID                         : A_AC3
Duration                         : 1h 38mn
Bit rate mode                    : Constant
Bit rate                         : 640 Kbps
Channel(s)                       : 6 channels
Channel positions                : Front: L C R, Side: L R, LFE
Sampling rate                    : 48.0 KHz
Bit depth                        : 16 bits
Compression mode                 : Lossy
Stream size                      : 452 MiB (17%)
Title                            : www.club-hd.com  >>  Latino
Language                         : Spanish
Default                          : Yes
Forced                           : No

Audio #2
ID                               : 3
Format                           : AC-3
Format/Info                      : Audio Coding 3
Mode extension                   : CM (complete main)
Codec ID                         : A_AC3
Duration                         : 1h 38mn
Bit rate mode                    : Constant
Bit rate                         : 448 Kbps
Channel(s)                       : 6 channels
Channel positions                : Front: L C R, Side: L R, LFE
Sampling rate                    : 48.0 KHz
Bit depth                        : 16 bits
Compression mode                 : Lossy
Stream size                      : 316 MiB (12%)
Title                            : www.club-hd.com  >>  Inglés
Language                         : English
Default                          : No
Forced                           : No

Text #1
ID                               : 4
Format                           : UTF-8
Codec ID                         : S_TEXT/UTF8
Codec ID/Info                    : UTF-8 Plain Text
Language                         : Spanish
Default                          : No
Forced                           : No

Text #2
ID                               : 5
Format                           : UTF-8
Codec ID                         : S_TEXT/UTF8
Codec ID/Info                    : UTF-8 Plain Text
Language                         : English
Default                          : No
Forced                           : No

Menu
00:00:00.000                     : en:Chapter 1
00:05:36.836                     : en:Chapter 2
00:07:25.236                     : en:Chapter 3
00:11:46.915                     : en:Chapter 4
00:14:00.465                     : en:Chapter 5
00:16:54.513                     : en:Chapter 6
00:20:22.680                     : en:Chapter 7
00:23:16.228                     : en:Chapter 8
00:27:37.990                     : en:Chapter 9
00:32:30.323                     : en:Chapter 10
00:36:58.383                     : en:Chapter 11
00:39:49.387                     : en:Chapter 12
00:42:43.478                     : en:Chapter 13
00:45:50.081                     : en:Chapter 14
00:49:37.141                     : en:Chapter 15
00:56:35.642                     : en:Chapter 16
00:58:43.979                     : en:Chapter 17
01:02:47.097                     : en:Chapter 18
01:07:05.939                     : en:Chapter 19
01:11:52.391                     : en:Chapter 20
01:15:35.072                     : en:Chapter 21
01:17:22.847                     : en:Chapter 22
01:26:01.865                     : en:Chapter 23
01:31:32.195                     : en:Chapter 24










Enlaces de Mega y Fireload solo disponibles para Miembros VIP

Compra tu Membresía VIP y apoya a Club-HD!

ATENCIÓN! Tenemos TODO el material de Club-HD disponible por Mega y Fireload, enlaces 100% activos y online hasta la fecha

Llévate tus cuentas Mega PRO II gratis con tu membresía VIP!
Todos los posts vivos con links de Mega y Fireload.
Todo el material de Club-HD desbloqueado y sin publicidad.

Click Aquí para más información.




Enlaces de Mega y Fireload solo disponibles para Miembros VIP

Compra tu Membresía VIP y apoya a Club-HD!

ATENCIÓN! Tenemos TODO el material de Club-HD disponible por Mega y Fireload, enlaces 100% activos y online hasta la fecha

Llévate tus cuentas Mega PRO II gratis con tu membresía VIP!
Todos los posts vivos con links de Mega y Fireload.
Todo el material de Club-HD desbloqueado y sin publicidad.

Click Aquí para más información.



Enlaces de Mega y Fireload solo disponibles para Miembros VIP

Compra tu Membresía VIP y apoya a Club-HD!

ATENCIÓN! Tenemos TODO el material de Club-HD disponible por Mega y Fireload, enlaces 100% activos y online hasta la fecha

Llévate tus cuentas Mega PRO II gratis con tu membresía VIP!
Todos los posts vivos con links de Mega y Fireload.
Todo el material de Club-HD desbloqueado y sin publicidad.

Click Aquí para más información.



Para ver este contenido oculto, debes dar click en una de las siguientes reacciones : Like Like, Love Love, Haha Haha, Wow Wow, Sad Sad, Angry Angry



Para ver este contenido oculto, debes dar click en una de las siguientes reacciones : Like Like, Love Love, Haha Haha, Wow Wow, Sad Sad, Angry Angry
 
Última edición:

xxganonxx

Member
Registro
31 Ago 2012
Mensajes
308
Reacciones
9
Puntos
18

Reputation:

Yupiii!!! El movie master como siempre guillandose!!! A bajar se ha dicho!!! Super gracias!!! :bsrs:
 

Usuarios Que Están Viendo Este Tema (Total: 1, Miembros: 0, Invitados: 1)

Arriba