Stitches (2012) 720p BDRip Audio Inglés [Subt. Esp] (Terror. Comedia)

Maestro Revolver

Well-known member
Miembro del Staff
Administrador
Registro
9 Ago 2012
Mensajes
3.569
Reacciones
59.480
Puntos
113

Reputation:









TÍTULO ORIGINAL: Stitches
AÑO: 2012
DURACIÓN: 86 min.
PAÍS: Irlanda
DIRECTOR: Conor McMahon
GUIÓN: Conor McMahon, David O’Brien
REPARTO: Ross Noble, Tommy Knight, Gemma Leah Devereux
PRODUCTORA: Fantastic Films / MPI Media Group / Tailored Films
GÉNERO: Terror. Comedia | Comedia de terror. Slasher
: http://www.imdb.com/title/tt2126362/






¿Cuándo se darán cuenta los padres de que contratar a un payaso para el cumpleaños de sus hijos siempre trae problemas? Miren, por ejemplo, a John Wayne Gacy... En esta película, sin embargo, el perjudicado es el propio clown, un pobre hombre con el alias artístico de “Stitches”, que no saldrá con vida de la gamberrada que le han preparado Tom y sus amigos. Seis años después, Tom es ya un adolescente a punto de cumplir los dieciséis, y tanto él como sus amigos siguen gustando de celebrar los aniversarios a lo grande. Lo que no saben es que el bueno de Stitches regresará de la tumba para ajustarles las cuentas...
























La pelicula NO tiene ninguna marca... solo colocamos el nombre de esta web en las capturas






Código:
General
Format                                   : Matroska
Format version                           : Version 2
File size                                : 3.72 GiB
Duration                                 : 1h 26mn
Overall bit rate                         : 6 180 Kbps
Movie name                               : www.club-hd.com
Encoded date                             : UTC 2013-02-18 15:39:55
Writing application                      : mkvmerge v5.7.0 ('The Whirlwind') built on Jul  8 2012 20:08:51
Writing library                          : libebml v1.2.3 + libmatroska v1.3.0

Video
ID                                       : 1
Format                                   : AVC
Format/Info                              : Advanced Video Codec
Format profile                           : High@L4.1
Format settings, CABAC                   : Yes
Format settings, ReFrames                : 5 frames
Codec ID                                 : V_MPEG4/ISO/AVC
Duration                                 : 1h 26mn
Bit rate                                 : 5 743 Kbps
Width                                    : 1 280 pixels
Height                                   : 720 pixels
Display aspect ratio                     : 16:9
Frame rate mode                          : Constant
Frame rate                               : 23.976 fps
Color space                              : YUV
Chroma subsampling                       : 4:2:0
Bit depth                                : 8 bits
Scan type                                : Progressive
Bits/(Pixel*Frame)                       : 0.260
Stream size                              : 3.38 GiB (91%)
Title                                    : www.club-hd.com
Writing library                          : x264 core 129 r2245 bc13772
Language                                 : English
Default                                  : Yes
Forced                                   : No

Audio
ID                                       : 2
Format                                   : AC-3
Format/Info                              : Audio Coding 3
Mode extension                           : CM (complete main)
Format settings, Endianness              : Big
Codec ID                                 : A_AC3
Duration                                 : 1h 26mn
Bit rate mode                            : Constant
Bit rate                                 : 448 Kbps
Channel(s)                               : 6 channels
Channel positions                        : Front: L C R, Side: L R, LFE
Sampling rate                            : 48.0 KHz
Bit depth                                : 16 bits
Compression mode                         : Lossy
Stream size                              : 276 MiB (7%)
Title                                    : www.club-hd.com
Language                                 : English
Default                                  : Yes
Forced                                   : No

Text
ID                                       : 3
Format                                   : UTF-8
Codec ID                                 : S_TEXT/UTF8
Codec ID/Info                            : UTF-8 Plain Text
Language                                 : Spanish
Default                                  : No
Forced                                   : No

Menu
00:00:00.000                             : en:00:00:00.000
00:08:15.203                             : en:00:08:15.203
00:11:39.115                             : en:00:11:39.115
00:16:14.724                             : en:00:16:14.724
00:20:32.982                             : en:00:20:32.982
00:27:04.790                             : en:00:27:04.790
00:30:07.806                             : en:00:30:07.806
00:37:19.904                             : en:00:37:19.904
00:41:23.523                             : en:00:41:23.523
00:46:43.009                             : en:00:46:43.009
00:50:25.314                             : en:00:50:25.314
00:56:26.800                             : en:00:56:26.800
01:01:59.466                             : en:01:01:59.466
01:07:51.276                             : en:01:07:51.276
01:13:51.093                             : en:01:13:51.093
01:21:03.025                             : en:01:21:03.025





IMPORTANTE


Activar los subtítulos desde el reproductor , me olvide activarlos F4ce_P










Enlaces de Mega y Fireload solo disponibles para Miembros VIP

Compra tu Membresía VIP y apoya a Club-HD!

ATENCIÓN! Tenemos TODO el material de Club-HD disponible por Mega y Fireload, enlaces 100% activos y online hasta la fecha

Llévate tus cuentas Mega PRO II gratis con tu membresía VIP!
Todos los posts vivos con links de Mega y Fireload.
Todo el material de Club-HD desbloqueado y sin publicidad.

Click Aquí para más información.




Enlaces de Mega y Fireload solo disponibles para Miembros VIP

Compra tu Membresía VIP y apoya a Club-HD!

ATENCIÓN! Tenemos TODO el material de Club-HD disponible por Mega y Fireload, enlaces 100% activos y online hasta la fecha

Llévate tus cuentas Mega PRO II gratis con tu membresía VIP!
Todos los posts vivos con links de Mega y Fireload.
Todo el material de Club-HD desbloqueado y sin publicidad.

Click Aquí para más información.



Para ver este contenido oculto, debes dar click en una de las siguientes reacciones : Like Like, Love Love, Haha Haha, Wow Wow, Sad Sad, Angry Angry

 
Última edición:

DoomsDay Elite

Well-known member
Registro
5 Sep 2012
Mensajes
1.225
Reacciones
1.101
Puntos
113

Reputation:

la cabeza de ese :OHHH: gracias revolver como siempre!!!!
 

Ezze

Well-known member
Miembro del Staff
Súper Moderador
Registro
28 Ago 2012
Mensajes
1.664
Reacciones
1.795
Puntos
113
Ubicación
En la Torre de Observación

Reputation:

bye Una combinación rara... Terror y Comedia, Pero quién soy para juzgar. En una de esas esta bárbara. Se agradece, como siempre!!! :aplausos: Saluuuuuudos guit4r_3
 

Usuarios Que Están Viendo Este Tema (Total: 1, Miembros: 0, Invitados: 1)

Arriba