• Este aviso va dirigido a todos los nuevos miembros recien llegados a Club-HD. Les recordamos que la direccion URL de este sitio web es , asi que deben acceder únicamente por esta URL. Sean todos bienvenidos al Club!

Suicide Tourist (2019) 1080p BDRip Dual Castellano-Danés [Subt. Esp] (Drama. Intriga)

Dante Inferno

🔥Dante Inferno🔥
Miembro del Staff
Moderador
Uploader
Registrado
24 May 2016
Mensajes
585
Puntos de reacción
11,477
Puntos
93
Ubicación
Argentina
Sitio web
club-hd.com



Otros títulos: Selvmordsturisten | Exit Plan | Plan de salida | The man with no future


SINOPSIS

Max (Nikolaj Coster-Waldau) vive una crisis existencial y mientras busca como resolver un caso, se registra en el clandestino Hotel Aurora. Una instalación secreta y única que se especializa en elaboradas fantasías de suicidio asistido. La investigación que está llevando a cabo revela una verdad inquietante que obliga a Max a cuestionar la naturaleza misma de la vida y la muerte y lo que es más importante: su propia percepción de la realidad.

MÁS INFORMACIÓN




TRAILER



CAPTURAS






MEDIAINFO

Código:
General
Complete name                            : Suicide Tourist (2019) 1080p BDRip Dual Castellano-Danés [Subt. Esp].mkv
Format                                   : Matroska
Format version                           : Version 4
File size                                : 4.03 GiB
Duration                                 : 1 h 29 min
Overall bit rate                         : 6 453 kb/s
Movie name                               : Suicide Tourist (2019) 1080p BDRip Dual Castellano-Danés [Subt. Esp] [www.club-hd.com]
Encoded date                             : UTC 2020-06-30 17:28:12
Writing application                      : mkvmerge v27.0.0 ('Metropolis') 64-bit
Writing library                          : libebml v1.3.6 + libmatroska v1.4.9

Video
ID                                       : 1
Format                                   : AVC
Format/Info                              : Advanced Video Codec
Format profile                           : High@L4.1
Format settings                          : CABAC / 5 Ref Frames
Format settings, CABAC                   : Yes
Format settings, Reference frames        : 5 frames
Codec ID                                 : V_MPEG4/ISO/AVC
Duration                                 : 1 h 29 min
Bit rate                                 : 5 364 kb/s
Width                                    : 1 920 pixels
Height                                   : 804 pixels
Display aspect ratio                     : 2.40:1
Frame rate mode                          : Constant
Frame rate                               : 24.000 FPS
Color space                              : YUV
Chroma subsampling                       : 4:2:0
Bit depth                                : 8 bits
Scan type                                : Progressive
Bits/(Pixel*Frame)                       : 0.145
Stream size                              : 3.35 GiB (83%)
Title                                    : Suicide Tourist (2019) 1080p BDRip Dual Castellano-Danés [Subt. Esp]
Writing library                          : x264 core 159 r2991+50 ce3db24 t_mod_New X64
Language                                 : Danish
Default                                  : Yes
Forced                                   : No
Color range                              : Limited
Color primaries                          : BT.709
Transfer characteristics                 : BT.709
Matrix coefficients                      : BT.709

Audio #1
ID                                       : 2
Format                                   : AC-3
Format/Info                              : Audio Coding 3
Commercial name                          : Dolby Digital
Codec ID                                 : A_AC3
Duration                                 : 1 h 29 min
Bit rate mode                            : Constant
Bit rate                                 : 640 kb/s
Channel(s)                               : 6 channels
Channel layout                           : L R C LFE Ls Rs
Sampling rate                            : 48.0 kHz
Frame rate                               : 31.250 FPS (1536 SPF)
Compression mode                         : Lossy
Stream size                              : 410 MiB (10%)
Title                                    : Castellano
Language                                 : Spanish
Service kind                             : Complete Main
Default                                  : Yes
Forced                                   : No

Audio #2
ID                                       : 3
Format                                   : AC-3
Format/Info                              : Audio Coding 3
Commercial name                          : Dolby Digital
Codec ID                                 : A_AC3
Duration                                 : 1 h 29 min
Bit rate mode                            : Constant
Bit rate                                 : 448 kb/s
Channel(s)                               : 6 channels
Channel layout                           : L R C LFE Ls Rs
Sampling rate                            : 48.0 kHz
Frame rate                               : 31.250 FPS (1536 SPF)
Compression mode                         : Lossy
Stream size                              : 287 MiB (7%)
Title                                    : Danés
Language                                 : Danish
Service kind                             : Complete Main
Default                                  : No
Forced                                   : No

Text #1
ID                                       : 4
Format                                   : UTF-8
Codec ID                                 : S_TEXT/UTF8
Codec ID/Info                            : UTF-8 Plain Text
Duration                                 : 1 h 22 min
Bit rate                                 : 23 b/s
Count of elements                        : 529
Stream size                              : 14.0 KiB (0%)
Title                                    : Subtítulos Castellano
Language                                 : Spanish
Default                                  : No
Forced                                   : No

Text #2
ID                                       : 5
Format                                   : UTF-8
Codec ID                                 : S_TEXT/UTF8
Codec ID/Info                            : UTF-8 Plain Text
Duration                                 : 1 h 7 min
Bit rate                                 : 0 b/s
Count of elements                        : 10
Stream size                              : 175 Bytes (0%)
Title                                    : Subtítulos Castellano Forzados
Language                                 : Spanish
Default                                  : Yes
Forced                                   : No

Menu
00:00:00.000                             : en:Chapter 01
00:20:56.000                             : en:Chapter 02
00:38:47.000                             : en:Chapter 03
00:54:54.000                             : en:Chapter 04
01:13:03.000                             : en:Chapter 05
Subtítulos latinizados por Clasaase aquí


CONTRASEÑA




DESCARGAR

Todos los links son Intercambiables




Enlaces de Mega y Google Drive solo disponibles para Miembros VIP

Compra tu Membresía VIP y apoya a Club-HD!

ATENCIÓN! Tenemos TODO el material de Club-HD disponible por Mega y Google Drive, enlaces 100% activos y online hasta la fecha

Llévate tus cuentas Mega PRO II gratis con tu membresía VIP!
Todos los posts vivos con links de Mega y Google Drive.
Todo el material de Club-HD desbloqueado y sin publicidad.

Click Aquí para más información.



Enlaces de Mega y Google Drive solo disponibles para Miembros VIP

Compra tu Membresía VIP y apoya a Club-HD!

ATENCIÓN! Tenemos TODO el material de Club-HD disponible por Mega y Google Drive, enlaces 100% activos y online hasta la fecha

Llévate tus cuentas Mega PRO II gratis con tu membresía VIP!
Todos los posts vivos con links de Mega y Google Drive.
Todo el material de Club-HD desbloqueado y sin publicidad.

Click Aquí para más información.



Para ver este contenido oculto, debes dar click en una de las siguientes reacciones: Like Like, Love Love, Haha Haha, Wow Wow, Sad Sad, Angry Angry



Para ver este contenido oculto, debes dar click en una de las siguientes reacciones: Like Like, Love Love, Haha Haha, Wow Wow, Sad Sad, Angry Angry



Para ver este contenido oculto, debes dar click en una de las siguientes reacciones: Like Like, Love Love, Haha Haha, Wow Wow, Sad Sad, Angry Angry



Para ver este contenido oculto, debes dar click en una de las siguientes reacciones: Like Like, Love Love, Haha Haha, Wow Wow, Sad Sad, Angry Angry
 
Última edición por un moderador:

tolnainamur

Well-known member
Miembro VIP
Registrado
25 Sep 2012
Mensajes
2,482
Puntos de reacción
997
Puntos
113

Bien amigo.
A falta de latino puedo soportar el español.
Hay algunos doblajes españoles en los que sinceramente no alcanzo a entender lo que dicen, pero son los menos. La mayoría los soporto bien. ¡Ya tengo el oído entrenado! Ja ja.
Hace años me parecían horribles horribles, pero de a poco me fui acostumbrando.
Igual que me pasó cuando solo prefería el audio original de la película y de a poco me fue gustando más en latino, es cuestión de adiestrar el oído. Ja ja.
 

cripp

Well-known member
Registrado
27 Ago 2012
Mensajes
8,059
Puntos de reacción
463
Puntos
113
Gracias por compartir
 

ERRE

Well-known member
Registrado
28 Ago 2012
Mensajes
2,213
Puntos de reacción
167
Puntos
63
Gracias... 😄
 

Usuarios Que Están Viendo Este Tema (Total: 1, Miembros: 0, Invitados: 1)

Arriba