• Este aviso va dirigido a todos los nuevos miembros recien llegados a Club-HD. Les recordamos que la direccion URL de este sitio web es , asi que deben acceder únicamente por esta URL. Sean todos bienvenidos al Club!

Superman Man Of Tomorrow (2020) 1080p WEB-DL Dual Latino-Inglés [Sub.Lat-Ing] [Animación. Acción. Fantástico, Superhéroes]

Tk

K.D.S 😳
Diseñador
Uploader
Miembro VIP
Registrado
1 May 2017
Mensajes
395
Puntos de reacción
5,511
Puntos
93
Sitio web
www.flickr.com





Clark Kent, un interino del periódico Daily Planet, lleva su afán de ganar experiencia en el trabajo cuando Lobo y Parasite fijan su atención en la ciudad de Metrópolis.


















Código:
Unique ID                                : 116107051180258911374270749613548021247 (0x57596797F2144D1A18236B58B412A5FF)
Complete name                            : Superman Man Of Tomorrow (2020) 1080p WEB-DL Dual Latino-Inglés [Sub.Lat-Ing].mkv
Format                                   : Matroska
Format version                           : Version 4
File size                                : 3.53 GiB
Duration                                 : 1 h 26 min
Overall bit rate                         : 5 858 kb/s
Movie name                               : Superman: Man Of Tomorrow (2020) 1080p WEB-DL Dual Latino-Inglés [www.club-hd.com]
Encoded date                             : UTC 2020-08-24 17:34:41
Writing application                      : mkvmerge v46.0.0 ('No Deeper Escape') 64-bit
Writing library                          : libebml v1.3.10 + libmatroska v1.5.2

Video
ID                                       : 1
Format                                   : AVC
Format/Info                              : Advanced Video Codec
Format profile                           : High@L4
Format settings                          : CABAC / 4 Ref Frames
Format settings, CABAC                   : Yes
Format settings, Reference frames        : 4 frames
Codec ID                                 : V_MPEG4/ISO/AVC
Duration                                 : 1 h 26 min
Bit rate                                 : 5 088 kb/s
Width                                    : 1 920 pixels
Height                                   : 1 080 pixels
Display aspect ratio                     : 16:9
Frame rate mode                          : Constant
Frame rate                               : 23.976 (24000/1001) FPS
Color space                              : YUV
Chroma subsampling                       : 4:2:0
Bit depth                                : 8 bits
Scan type                                : Progressive
Bits/(Pixel*Frame)                       : 0.102
Stream size                              : 3.07 GiB (87%)
Title                                    : Superman: Man Of Tomorrow (2020) 1080p WEB-DL Dual Latino-Inglés [Sub.Lat-Ing]
Language                                 : English
Default                                  : Yes
Forced                                   : No
Color range                              : Limited
Color primaries                          : BT.709
Transfer characteristics                 : BT.709
Matrix coefficients                      : BT.709

Audio #1
ID                                       : 2
Format                                   : AC-3
Format/Info                              : Audio Coding 3
Commercial name                          : Dolby Digital
Codec ID                                 : A_AC3
Duration                                 : 1 h 26 min
Bit rate mode                            : Constant
Bit rate                                 : 384 kb/s
Channel(s)                               : 6 channels
Channel layout                           : L R C LFE Ls Rs
Sampling rate                            : 48.0 kHz
Frame rate                               : 31.250 FPS (1536 SPF)
Compression mode                         : Lossy
Stream size                              : 237 MiB (7%)
Title                                    : Latino 5.1 [iTunes]
Language                                 : Spanish
Service kind                             : Complete Main
Default                                  : Yes
Forced                                   : Yes

Audio #2
ID                                       : 3
Format                                   : AC-3
Format/Info                              : Audio Coding 3
Commercial name                          : Dolby Digital
Codec ID                                 : A_AC3
Duration                                 : 1 h 26 min
Bit rate mode                            : Constant
Bit rate                                 : 384 kb/s
Channel(s)                               : 6 channels
Channel layout                           : L R C LFE Ls Rs
Sampling rate                            : 48.0 kHz
Frame rate                               : 31.250 FPS (1536 SPF)
Compression mode                         : Lossy
Stream size                              : 237 MiB (7%)
Title                                    : Inglés 5.1 [iTunes]
Language                                 : English
Service kind                             : Complete Main
Default                                  : No
Forced                                   : No

Text #1
ID                                       : 4
Format                                   : UTF-8
Codec ID                                 : S_TEXT/UTF8
Codec ID/Info                            : UTF-8 Plain Text
Duration                                 : 1 h 25 min
Bit rate                                 : 43 b/s
Count of elements                        : 887
Stream size                              : 27.1 KiB (0%)
Title                                    : Completos [SRT]
Language                                 : Spanish
Default                                  : No
Forced                                   : No

Text #2
ID                                       : 5
Format                                   : UTF-8
Codec ID                                 : S_TEXT/UTF8
Codec ID/Info                            : UTF-8 Plain Text
Duration                                 : 55 min 14 s
Bit rate                                 : 0 b/s
Count of elements                        : 4
Stream size                              : 112 Bytes (0%)
Title                                    : Forzados [SRT]
Language                                 : Spanish
Default                                  : No
Forced                                   : Yes

Text #3
ID                                       : 6
Format                                   : UTF-8
Codec ID                                 : S_TEXT/UTF8
Codec ID/Info                            : UTF-8 Plain Text
Duration                                 : 1 h 21 min
Bit rate                                 : 44 b/s
Count of elements                        : 926
Stream size                              : 26.7 KiB (0%)
Title                                    : Completos [SRT]
Language                                 : English
Default                                  : No
Forced                                   : No

Menu
00:00:00.000                             : en:1
00:09:23.688                             : en:2
00:20:05.871                             : en:3
00:31:05.988                             : en:4
00:40:23.127                             : en:5
00:47:54.828                             : en:6
00:57:26.566                             : en:7
01:07:07.979                             : en:8
01:15:52.211                             : en:9
01:22:46.583                             : en:10



www.club-hd.com





Enlaces de Mega y Google Drive solo disponibles para Miembros VIP

Compra tu Membresía VIP y apoya a Club-HD!

ATENCIÓN! Tenemos TODO el material de Club-HD disponible por Mega y Google Drive, enlaces 100% activos y online hasta la fecha

Llévate tus cuentas Mega PRO II gratis con tu membresía VIP!
Todos los posts vivos con links de Mega y Google Drive.
Todo el material de Club-HD desbloqueado y sin publicidad.

Click Aquí para más información.

Enlaces de Mega y Google Drive solo disponibles para Miembros VIP

Compra tu Membresía VIP y apoya a Club-HD!

ATENCIÓN! Tenemos TODO el material de Club-HD disponible por Mega y Google Drive, enlaces 100% activos y online hasta la fecha

Llévate tus cuentas Mega PRO II gratis con tu membresía VIP!
Todos los posts vivos con links de Mega y Google Drive.
Todo el material de Club-HD desbloqueado y sin publicidad.

Click Aquí para más información.

Para ver este contenido oculto, debes dar click en una de las siguientes reacciones: Like Like, Love Love, Haha Haha, Wow Wow, Sad Sad, Angry Angry

Para ver este contenido oculto, debes dar click en una de las siguientes reacciones: Like Like, Love Love, Haha Haha, Wow Wow, Sad Sad, Angry Angry

Para ver este contenido oculto, debes dar click en una de las siguientes reacciones: Like Like, Love Love, Haha Haha, Wow Wow, Sad Sad, Angry Angry

Para ver este contenido oculto, debes dar click en una de las siguientes reacciones: Like Like, Love Love, Haha Haha, Wow Wow, Sad Sad, Angry Angry
 

rachi

Active member
Registrado
21 Jul 2018
Mensajes
689
Puntos de reacción
83
Puntos
28
Gracias por el aporte
 

galiel38

Active member
Registrado
28 Sep 2012
Mensajes
708
Puntos de reacción
86
Puntos
28
Edad
32
Muchas gracias por esta película.
 

Usuarios Que Están Viendo Este Tema (Total: 1, Miembros: 0, Invitados: 1)

Arriba