• Este aviso va dirigido a todos los nuevos miembros recien llegados a Club-HD. Les recordamos que la direccion URL de este sitio web es , asi que deben acceder únicamente por esta URL. Sean todos bienvenidos al Club!

Survive The Night (2020) 1080p BDRip Dual Latino-Inglés [Sub.Lat-Ing] (Acción)

Tk

K.D.S 😳
Diseñador
Uploader
Miembro VIP
Registrado
1 May 2017
Mensajes
388
Puntos de reacción
5,015
Puntos
93
Sitio web
www.flickr.com







La casa de un doctor caído en desgracia es invadida por dos criminales. Uno de ellos recibió un disparo durante un robo. Aunque el doctor trata de ayudarle, su conocimiento no es suficiente para detener la hemorragia. Su única preocupación pasa por proteger a su familia a toda costa.














Código:
Unique ID                                : 168441336674042690963981121391576385271 (0x7EB89F15348565FD7691035B0CDE86F7)
Complete name                            : Survive The Night (2020) 1080p BDRip Dual Latino-Inglés [Sub.Lat-Ing].mkv
Format                                   : Matroska
Format version                           : Version 4
File size                                : 12.1 GiB
Duration                                 : 1 h 29 min
Overall bit rate mode                    : Variable
Overall bit rate                         : 19.5 Mb/s
Movie name                               : Survive The Night (2020) 1080p BDRip Dual Latino-Inglés [www.club-hd.com]
Encoded date                             : UTC 2020-07-12 04:59:58
Writing application                      : mkvmerge v46.0.0 ('No Deeper Escape') 64-bit
Writing library                          : libebml v1.3.10 + libmatroska v1.5.2

Video
ID                                       : 1
Format                                   : AVC
Format/Info                              : Advanced Video Codec
Format profile                           : High@L4.1
Format settings                          : CABAC / 4 Ref Frames
Format settings, CABAC                   : Yes
Format settings, Reference frames        : 4 frames
Codec ID                                 : V_MPEG4/ISO/AVC
Duration                                 : 1 h 29 min
Bit rate                                 : 11.5 Mb/s
Width                                    : 1 920 pixels
Height                                   : 960 pixels
Display aspect ratio                     : 2.000
Frame rate mode                          : Constant
Frame rate                               : 23.976 (24000/1001) FPS
Color space                              : YUV
Chroma subsampling                       : 4:2:0
Bit depth                                : 8 bits
Scan type                                : Progressive
Bits/(Pixel*Frame)                       : 0.260
Stream size                              : 7.17 GiB (59%)
Title                                    : Survive The Night (2020) 1080p BDRip Dual Latino-Inglés [Sub.Lat-Ing]
Writing library                          : x264 core 148 r2748 97eaef2
Encoding settings                        : cabac=1 / ref=4 / deblock=1:-2:-2 / analyse=0x3:0x113 / me=umh / subme=9 / psy=1 / psy_rd=1.00:0.15 / mixed_ref=1 / me_range=16 / chroma_me=1 / trellis=2 / 8x8dct=1 / cqm=0 / deadzone=21,11 / fast_pskip=1 / chroma_qp_offset=-3 / threads=72 / lookahead_threads=3 / sliced_threads=0 / nr=0 / decimate=1 / interlaced=0 / bluray_compat=0 / constrained_intra=0 / bframes=3 / b_pyramid=2 / b_adapt=1 / b_bias=0 / direct=3 / weightb=1 / open_gop=0 / weightp=2 / keyint=250 / keyint_min=25 / scenecut=40 / intra_refresh=0 / rc_lookahead=50 / rc=2pass / mbtree=1 / bitrate=11500 / ratetol=1.0 / qcomp=0.60 / qpmin=0 / qpmax=69 / qpstep=4 / cplxblur=20.0 / qblur=0.5 / vbv_maxrate=31250 / vbv_bufsize=31250 / nal_hrd=none / filler=0 / ip_ratio=1.40 / aq=1:1.00
Language                                 : English
Default                                  : Yes
Forced                                   : No

Audio #1
ID                                       : 2
Format                                   : DTS XLL
Format/Info                              : Digital Theater Systems
Commercial name                          : DTS-HD Master Audio
Codec ID                                 : A_DTS
Duration                                 : 1 h 29 min
Bit rate mode                            : Variable
Bit rate                                 : 3 684 kb/s
Channel(s)                               : 6 channels
Channel layout                           : C L R Ls Rs LFE
Sampling rate                            : 48.0 kHz
Frame rate                               : 93.750 FPS (512 SPF)
Bit depth                                : 24 bits
Compression mode                         : Lossless
Stream size                              : 2.30 GiB (19%)
Title                                    : Latino 5.1 [BluRay]
Language                                 : Spanish
Default                                  : Yes
Forced                                   : No

Audio #2
ID                                       : 3
Format                                   : DTS XLL
Format/Info                              : Digital Theater Systems
Commercial name                          : DTS-HD Master Audio
Codec ID                                 : A_DTS
Duration                                 : 1 h 29 min
Bit rate mode                            : Variable
Bit rate                                 : 3 640 kb/s
Channel(s)                               : 6 channels
Channel layout                           : C L R Ls Rs LFE
Sampling rate                            : 48.0 kHz
Frame rate                               : 93.750 FPS (512 SPF)
Bit depth                                : 24 bits
Compression mode                         : Lossless
Stream size                              : 2.27 GiB (19%)
Title                                    : Inglés 5.1 [BluRay]
Language                                 : English
Default                                  : No
Forced                                   : No

Audio #3
ID                                       : 4
Format                                   : AC-3
Format/Info                              : Audio Coding 3
Commercial name                          : Dolby Digital
Codec ID                                 : A_AC3
Duration                                 : 1 h 29 min
Bit rate mode                            : Constant
Bit rate                                 : 640 kb/s
Channel(s)                               : 6 channels
Channel layout                           : L R C LFE Ls Rs
Sampling rate                            : 48.0 kHz
Frame rate                               : 31.250 FPS (1536 SPF)
Compression mode                         : Lossy
Stream size                              : 408 MiB (3%)
Title                                    : Latino 5.1 [BluRay]
Language                                 : Spanish
Service kind                             : Complete Main
Default                                  : No
Forced                                   : No

Text #1
ID                                       : 5
Format                                   : UTF-8
Codec ID                                 : S_TEXT/UTF8
Codec ID/Info                            : UTF-8 Plain Text
Duration                                 : 1 h 20 min
Bit rate                                 : 34 b/s
Count of elements                        : 905
Stream size                              : 20.6 KiB (0%)
Title                                    : Completos [SRT]
Language                                 : Spanish
Default                                  : No
Forced                                   : No

Text #2
ID                                       : 6
Format                                   : UTF-8
Codec ID                                 : S_TEXT/UTF8
Codec ID/Info                            : UTF-8 Plain Text
Duration                                 : 21 min 32 s
Bit rate                                 : 0 b/s
Count of elements                        : 4
Stream size                              : 149 Bytes (0%)
Title                                    : Forzados [SRT]
Language                                 : Spanish
Default                                  : No
Forced                                   : Yes

Text #3
ID                                       : 7
Format                                   : UTF-8
Codec ID                                 : S_TEXT/UTF8
Codec ID/Info                            : UTF-8 Plain Text
Duration                                 : 1 h 22 min
Bit rate                                 : 33 b/s
Count of elements                        : 814
Stream size                              : 20.6 KiB (0%)
Title                                    : Inglés [SRT]
Language                                 : English
Default                                  : No
Forced                                   : No

Text #4
ID                                       : 8
Format                                   : PGS
Muxing mode                              : zlib
Codec ID                                 : S_HDMV/PGS
Codec ID/Info                            : Picture based subtitle format used on BDs/HD-DVDs
Duration                                 : 1 h 27 min
Bit rate                                 : 20.2 kb/s
Count of elements                        : 1814
Stream size                              : 12.6 MiB (0%)
Title                                    : Completos [PGS]
Language                                 : Spanish
Default                                  : No
Forced                                   : No

Text #5
ID                                       : 9
Format                                   : PGS
Muxing mode                              : zlib
Codec ID                                 : S_HDMV/PGS
Codec ID/Info                            : Picture based subtitle format used on BDs/HD-DVDs
Duration                                 : 1 h 22 min
Bit rate                                 : 24.7 kb/s
Count of elements                        : 1942
Stream size                              : 14.6 MiB (0%)
Title                                    : English [PGS]
Language                                 : English
Default                                  : No
Forced                                   : No

Menu
00:00:00.000                             : en:Chapter 1
00:03:55.026                             : en:Chapter 2
00:08:53.241                             : en:Chapter 3
00:15:14.247                             : en:Chapter 4
00:20:46.662                             : en:Chapter 5
00:24:47.695                             : en:Chapter 6
00:30:06.263                             : en:Chapter 7
00:36:01.284                             : en:Chapter 8
00:40:44.901                             : en:Chapter 9
00:44:14.694                             : en:Chapter 10
00:50:30.069                             : en:Chapter 11
00:55:13.393                             : en:Chapter 12
01:01:37.360                             : en:Chapter 13
01:08:05.206                             : en:Chapter 14
01:13:02.378                             : en:Chapter 15
01:22:04.586                             : en:Chapter 16

www.club-hd.com





Enlaces de Mega y Google Drive solo disponibles para Miembros VIP

Compra tu Membresía VIP y apoya a Club-HD!

ATENCIÓN! Tenemos TODO el material de Club-HD disponible por Mega y Google Drive, enlaces 100% activos y online hasta la fecha

Llévate tus cuentas Mega PRO II gratis con tu membresía VIP!
Todos los posts vivos con links de Mega y Google Drive.
Todo el material de Club-HD desbloqueado y sin publicidad.

Click Aquí para más información.

Para ver este contenido oculto, debes dar click en una de las siguientes reacciones: Like Like, Love Love, Haha Haha, Wow Wow, Sad Sad, Angry Angry

Para ver este contenido oculto, debes dar click en una de las siguientes reacciones: Like Like, Love Love, Haha Haha, Wow Wow, Sad Sad, Angry Angry

Para ver este contenido oculto, debes dar click en una de las siguientes reacciones: Like Like, Love Love, Haha Haha, Wow Wow, Sad Sad, Angry Angry


Para ver este contenido oculto, debes dar click en una de las siguientes reacciones: Like Like, Love Love, Haha Haha, Wow Wow, Sad Sad, Angry Angry
 

cripp

Well-known member
Registrado
27 Ago 2012
Mensajes
8,125
Puntos de reacción
481
Puntos
113
Gracias por compartir
 

galiel38

Active member
Registrado
28 Sep 2012
Mensajes
693
Puntos de reacción
81
Puntos
28
Edad
32
Muchas gracias por la película.
 

El14mago

Well-known member
Miembro VIP
Registrado
10 Sep 2014
Mensajes
1,028
Puntos de reacción
51
Puntos
48
Edad
51
Gracias por el aporte.-
 

Usuarios Que Están Viendo Este Tema (Total: 1, Miembros: 0, Invitados: 1)

Arriba