• Este aviso va dirigido a todos los nuevos miembros recien llegados a Club-HD. Les recordamos que la direccion URL de este sitio web es , asi que deben acceder únicamente por esta URL. Sean todos bienvenidos al Club!

Swamp Thing S01E05 - Drive All Night (2019) 1080p AMZN WEB-DL Dual Latino-Inglés [Subt. Esp] (Serie de TV. Terror)

Brady

Moderador
Miembro del Staff
Moderador
Uploader
Registrado
1 Jun 2016
Mensajes
2,522
Puntos de reacción
38,322
Puntos
113
Edad
23




Sinopsis
Serie TV. 10 episodios. Cuando la investigadora Abby Arcane regresa a su pueblo natal para investigar un virus mortal nacido en un pantano, crea un inesperado vínculo con el científico Alec Holland. Sin embargo, ambos son separados de forma dramática cuando él muere. Los acontecimientos toman un rumbo catastrófico cuando Arcane descubre que varias entidades de procedencia desconocida tratan de adueñarse de las misteriosas propiedades del pantano con el fin de utilizarlo para sus propios intereses.


MEDIAINFO
Código:
General
Unique ID                                : 294321341455381531267771362908476433359 (0xDD6C3A7D8AAB501770CE142108D263CF)
Format                                   : Matroska
Format version                           : Version 4
File size                                : 2.61 GiB
Duration                                 : 53 min 4 s
Overall bit rate                         : 7 029 kb/s
Encoded date                             : UTC 2020-03-01 00:05:48
Writing application                      : mkvmerge v43.0.0 ('The Quartermaster') 64-bit
Writing library                          : libebml v1.3.10 + libmatroska v1.5.2
Uploader                                 : Brady
Web                                      : www.club-hd.com

Video
ID                                       : 1
Format                                   : AVC
Format/Info                              : Advanced Video Codec
Format profile                           : High@L4
Format settings                          : CABAC / 4 Ref Frames
Format settings, CABAC                   : Yes
Format settings, Reference frames        : 4 frames
Codec ID                                 : V_MPEG4/ISO/AVC
Duration                                 : 53 min 3 s
Bit rate mode                            : Constant
Bit rate                                 : 6 164 kb/s
Nominal bit rate                         : 10 000 kb/s
Width                                    : 1 920 pixels
Height                                   : 1 080 pixels
Display aspect ratio                     : 16:9
Frame rate mode                          : Constant
Frame rate                               : 23.976 (24000/1001) FPS
Color space                              : YUV
Chroma subsampling                       : 4:2:0
Bit depth                                : 8 bits
Scan type                                : Progressive
Bits/(Pixel*Frame)                       : 0.124
Stream size                              : 2.28 GiB (88%)
Language                                 : English
Default                                  : Yes
Forced                                   : No
Color range                              : Limited
Color primaries                          : BT.709
Transfer characteristics                 : BT.709
Matrix coefficients                      : BT.709

Audio #1
ID                                       : 2
Format                                   : E-AC-3
Format/Info                              : Enhanced AC-3
Commercial name                          : Dolby Digital Plus
Codec ID                                 : A_EAC3
Duration                                 : 53 min 4 s
Bit rate mode                            : Constant
Bit rate                                 : 224 kb/s
Channel(s)                               : 2 channels
Channel layout                           : L R
Sampling rate                            : 48.0 kHz
Frame rate                               : 31.250 FPS (1536 SPF)
Compression mode                         : Lossy
Stream size                              : 85.0 MiB (3%)
Title                                    : Latino
Language                                 : Spanish
Service kind                             : Complete Main
Default                                  : Yes
Forced                                   : No

Audio #2
ID                                       : 3
Format                                   : E-AC-3
Format/Info                              : Enhanced AC-3
Commercial name                          : Dolby Digital Plus
Codec ID                                 : A_EAC3
Duration                                 : 53 min 3 s
Bit rate mode                            : Constant
Bit rate                                 : 640 kb/s
Channel(s)                               : 6 channels
Channel layout                           : L R C LFE Ls Rs
Sampling rate                            : 48.0 kHz
Frame rate                               : 31.250 FPS (1536 SPF)
Compression mode                         : Lossy
Stream size                              : 243 MiB (9%)
Title                                    : Ingles
Language                                 : English
Service kind                             : Complete Main
Default                                  : No
Forced                                   : No

Text #1
ID                                       : 4
Format                                   : UTF-8
Codec ID                                 : S_TEXT/UTF8
Codec ID/Info                            : UTF-8 Plain Text
Duration                                 : 51 min 26 s
Bit rate                                 : 47 b/s
Count of elements                        : 548
Stream size                              : 18.0 KiB (0%)
Title                                    : Latino
Language                                 : Spanish
Default                                  : No
Forced                                   : No

Text #2
ID                                       : 5
Format                                   : UTF-8
Codec ID                                 : S_TEXT/UTF8
Codec ID/Info                            : UTF-8 Plain Text
Duration                                 : 51 min 59 s
Bit rate                                 : 55 b/s
Count of elements                        : 781
Stream size                              : 21.1 KiB (0%)
Title                                    : Ingles
Language                                 : English
Default                                  : No
Forced                                   : No
CAPTURAS







DESCARGA
Todos los links son Intercambiables!



Enlaces de Mega y Google Drive solo disponibles para Miembros VIP

Compra tu Membresía VIP y apoya a Club-HD!

ATENCIÓN! Tenemos TODO el material de Club-HD disponible por Mega y Google Drive, enlaces 100% activos y online hasta la fecha

Llévate tus cuentas Mega PRO II gratis con tu membresía VIP!
Todos los posts vivos con links de Mega y Google Drive.
Todo el material de Club-HD desbloqueado y sin publicidad.

Click Aquí para más información.


Enlaces de Mega y Google Drive solo disponibles para Miembros VIP

Compra tu Membresía VIP y apoya a Club-HD!

ATENCIÓN! Tenemos TODO el material de Club-HD disponible por Mega y Google Drive, enlaces 100% activos y online hasta la fecha

Llévate tus cuentas Mega PRO II gratis con tu membresía VIP!
Todos los posts vivos con links de Mega y Google Drive.
Todo el material de Club-HD desbloqueado y sin publicidad.

Click Aquí para más información.


Para ver este contenido oculto, debes dar click en una de las siguientes reacciones: Like Like, Love Love, Haha Haha, Wow Wow, Sad Sad, Angry Angry


Para ver este contenido oculto, debes dar click en una de las siguientes reacciones: Like Like, Love Love, Haha Haha, Wow Wow, Sad Sad, Angry Angry


Para ver este contenido oculto, debes dar click en una de las siguientes reacciones: Like Like, Love Love, Haha Haha, Wow Wow, Sad Sad, Angry Angry
CONTRASEÑA
Código:
www.club-hd.com
 

cripp

Well-known member
Registrado
27 Ago 2012
Mensajes
7,925
Puntos de reacción
449
Puntos
113
Gracias por compartir
 

flujo

Well-known member
Registrado
28 Dic 2014
Mensajes
6,958
Puntos de reacción
224
Puntos
83




Sinopsis
Serie TV. 10 episodios. Cuando la investigadora Abby Arcane regresa a su pueblo natal para investigar un virus mortal nacido en un pantano, crea un inesperado vínculo con el científico Alec Holland. Sin embargo, ambos son separados de forma dramática cuando él muere. Los acontecimientos toman un rumbo catastrófico cuando Arcane descubre que varias entidades de procedencia desconocida tratan de adueñarse de las misteriosas propiedades del pantano con el fin de utilizarlo para sus propios intereses.


MEDIAINFO
Código:
General
Unique ID                                : 294321341455381531267771362908476433359 (0xDD6C3A7D8AAB501770CE142108D263CF)
Format                                   : Matroska
Format version                           : Version 4
File size                                : 2.61 GiB
Duration                                 : 53 min 4 s
Overall bit rate                         : 7 029 kb/s
Encoded date                             : UTC 2020-03-01 00:05:48
Writing application                      : mkvmerge v43.0.0 ('The Quartermaster') 64-bit
Writing library                          : libebml v1.3.10 + libmatroska v1.5.2
Uploader                                 : Brady
Web                                      : www.club-hd.com

Video
ID                                       : 1
Format                                   : AVC
Format/Info                              : Advanced Video Codec
Format profile                           : High@L4
Format settings                          : CABAC / 4 Ref Frames
Format settings, CABAC                   : Yes
Format settings, Reference frames        : 4 frames
Codec ID                                 : V_MPEG4/ISO/AVC
Duration                                 : 53 min 3 s
Bit rate mode                            : Constant
Bit rate                                 : 6 164 kb/s
Nominal bit rate                         : 10 000 kb/s
Width                                    : 1 920 pixels
Height                                   : 1 080 pixels
Display aspect ratio                     : 16:9
Frame rate mode                          : Constant
Frame rate                               : 23.976 (24000/1001) FPS
Color space                              : YUV
Chroma subsampling                       : 4:2:0
Bit depth                                : 8 bits
Scan type                                : Progressive
Bits/(Pixel*Frame)                       : 0.124
Stream size                              : 2.28 GiB (88%)
Language                                 : English
Default                                  : Yes
Forced                                   : No
Color range                              : Limited
Color primaries                          : BT.709
Transfer characteristics                 : BT.709
Matrix coefficients                      : BT.709

Audio #1
ID                                       : 2
Format                                   : E-AC-3
Format/Info                              : Enhanced AC-3
Commercial name                          : Dolby Digital Plus
Codec ID                                 : A_EAC3
Duration                                 : 53 min 4 s
Bit rate mode                            : Constant
Bit rate                                 : 224 kb/s
Channel(s)                               : 2 channels
Channel layout                           : L R
Sampling rate                            : 48.0 kHz
Frame rate                               : 31.250 FPS (1536 SPF)
Compression mode                         : Lossy
Stream size                              : 85.0 MiB (3%)
Title                                    : Latino
Language                                 : Spanish
Service kind                             : Complete Main
Default                                  : Yes
Forced                                   : No

Audio #2
ID                                       : 3
Format                                   : E-AC-3
Format/Info                              : Enhanced AC-3
Commercial name                          : Dolby Digital Plus
Codec ID                                 : A_EAC3
Duration                                 : 53 min 3 s
Bit rate mode                            : Constant
Bit rate                                 : 640 kb/s
Channel(s)                               : 6 channels
Channel layout                           : L R C LFE Ls Rs
Sampling rate                            : 48.0 kHz
Frame rate                               : 31.250 FPS (1536 SPF)
Compression mode                         : Lossy
Stream size                              : 243 MiB (9%)
Title                                    : Ingles
Language                                 : English
Service kind                             : Complete Main
Default                                  : No
Forced                                   : No

Text #1
ID                                       : 4
Format                                   : UTF-8
Codec ID                                 : S_TEXT/UTF8
Codec ID/Info                            : UTF-8 Plain Text
Duration                                 : 51 min 26 s
Bit rate                                 : 47 b/s
Count of elements                        : 548
Stream size                              : 18.0 KiB (0%)
Title                                    : Latino
Language                                 : Spanish
Default                                  : No
Forced                                   : No

Text #2
ID                                       : 5
Format                                   : UTF-8
Codec ID                                 : S_TEXT/UTF8
Codec ID/Info                            : UTF-8 Plain Text
Duration                                 : 51 min 59 s
Bit rate                                 : 55 b/s
Count of elements                        : 781
Stream size                              : 21.1 KiB (0%)
Title                                    : Ingles
Language                                 : English
Default                                  : No
Forced                                   : No
CAPTURAS







DESCARGA
Todos los links son Intercambiables!



[Hidden content]



[Hidden content]



[Hidden content]



[Hidden content]



[Hidden content]

CONTRASEÑA
Código:
www.club-hd.com
gracias
 

ERRE

Well-known member
Registrado
28 Ago 2012
Mensajes
2,177
Puntos de reacción
160
Puntos
63
Gracias... 😁
 

Padrino1313

Member
Registrado
1 Sep 2012
Mensajes
475
Puntos de reacción
3
Puntos
18




Sinopsis
Serie TV. 10 episodios. Cuando la investigadora Abby Arcane regresa a su pueblo natal para investigar un virus mortal nacido en un pantano, crea un inesperado vínculo con el científico Alec Holland. Sin embargo, ambos son separados de forma dramática cuando él muere. Los acontecimientos toman un rumbo catastrófico cuando Arcane descubre que varias entidades de procedencia desconocida tratan de adueñarse de las misteriosas propiedades del pantano con el fin de utilizarlo para sus propios intereses.


MEDIAINFO
Código:
General
Unique ID                                : 294321341455381531267771362908476433359 (0xDD6C3A7D8AAB501770CE142108D263CF)
Format                                   : Matroska
Format version                           : Version 4
File size                                : 2.61 GiB
Duration                                 : 53 min 4 s
Overall bit rate                         : 7 029 kb/s
Encoded date                             : UTC 2020-03-01 00:05:48
Writing application                      : mkvmerge v43.0.0 ('The Quartermaster') 64-bit
Writing library                          : libebml v1.3.10 + libmatroska v1.5.2
Uploader                                 : Brady
Web                                      : www.club-hd.com

Video
ID                                       : 1
Format                                   : AVC
Format/Info                              : Advanced Video Codec
Format profile                           : High@L4
Format settings                          : CABAC / 4 Ref Frames
Format settings, CABAC                   : Yes
Format settings, Reference frames        : 4 frames
Codec ID                                 : V_MPEG4/ISO/AVC
Duration                                 : 53 min 3 s
Bit rate mode                            : Constant
Bit rate                                 : 6 164 kb/s
Nominal bit rate                         : 10 000 kb/s
Width                                    : 1 920 pixels
Height                                   : 1 080 pixels
Display aspect ratio                     : 16:9
Frame rate mode                          : Constant
Frame rate                               : 23.976 (24000/1001) FPS
Color space                              : YUV
Chroma subsampling                       : 4:2:0
Bit depth                                : 8 bits
Scan type                                : Progressive
Bits/(Pixel*Frame)                       : 0.124
Stream size                              : 2.28 GiB (88%)
Language                                 : English
Default                                  : Yes
Forced                                   : No
Color range                              : Limited
Color primaries                          : BT.709
Transfer characteristics                 : BT.709
Matrix coefficients                      : BT.709

Audio #1
ID                                       : 2
Format                                   : E-AC-3
Format/Info                              : Enhanced AC-3
Commercial name                          : Dolby Digital Plus
Codec ID                                 : A_EAC3
Duration                                 : 53 min 4 s
Bit rate mode                            : Constant
Bit rate                                 : 224 kb/s
Channel(s)                               : 2 channels
Channel layout                           : L R
Sampling rate                            : 48.0 kHz
Frame rate                               : 31.250 FPS (1536 SPF)
Compression mode                         : Lossy
Stream size                              : 85.0 MiB (3%)
Title                                    : Latino
Language                                 : Spanish
Service kind                             : Complete Main
Default                                  : Yes
Forced                                   : No

Audio #2
ID                                       : 3
Format                                   : E-AC-3
Format/Info                              : Enhanced AC-3
Commercial name                          : Dolby Digital Plus
Codec ID                                 : A_EAC3
Duration                                 : 53 min 3 s
Bit rate mode                            : Constant
Bit rate                                 : 640 kb/s
Channel(s)                               : 6 channels
Channel layout                           : L R C LFE Ls Rs
Sampling rate                            : 48.0 kHz
Frame rate                               : 31.250 FPS (1536 SPF)
Compression mode                         : Lossy
Stream size                              : 243 MiB (9%)
Title                                    : Ingles
Language                                 : English
Service kind                             : Complete Main
Default                                  : No
Forced                                   : No

Text #1
ID                                       : 4
Format                                   : UTF-8
Codec ID                                 : S_TEXT/UTF8
Codec ID/Info                            : UTF-8 Plain Text
Duration                                 : 51 min 26 s
Bit rate                                 : 47 b/s
Count of elements                        : 548
Stream size                              : 18.0 KiB (0%)
Title                                    : Latino
Language                                 : Spanish
Default                                  : No
Forced                                   : No

Text #2
ID                                       : 5
Format                                   : UTF-8
Codec ID                                 : S_TEXT/UTF8
Codec ID/Info                            : UTF-8 Plain Text
Duration                                 : 51 min 59 s
Bit rate                                 : 55 b/s
Count of elements                        : 781
Stream size                              : 21.1 KiB (0%)
Title                                    : Ingles
Language                                 : English
Default                                  : No
Forced                                   : No
CAPTURAS







DESCARGA
Todos los links son Intercambiables!



[Hidden content]



[Hidden content]



[Hidden content]



[Hidden content]



[Hidden content]

CONTRASEÑA
Código:
www.club-hd.com
gracias
 

Usuarios Que Están Viendo Este Tema (Total: 1, Miembros: 0, Invitados: 1)

Arriba