Taken 2 (2012) UNRATED EXTENDED CUT m-720p Dual Latino-Inglés [Subt. Esp-Ing] (Thriller. Acción)

Maestro Revolver

Well-known member
Miembro del Staff
Administrador
Registro
9 Ago 2012
Mensajes
3.569
Reacciones
59.346
Puntos
113

Reputation:









TÍTULO ORIGINAL: Taken 2
AÑO: 2012
DURACIÓN: 91 min.
PAÍS: Francia
DIRECTOR: Olivier Megaton
GUIÓN: Luc Besson, Robert Mark Kamen
REPARTO: Liam Neeson, Maggie Grace, Luke Grimes, Famke Janssen, Rade Serbedzija, Leland Orser, Jon Gries
PRODUCTORA: Europa Corp.
GÉNERO: Thriller. Acción | Secuela
: http://www.imdb.com/title/tt1397280/






Aunque ya está retirado, Bryan Mills (Liam Neeson) se ve obligado a utilizar todos sus recursos y habilidades de agente de la CIA para salvar tanto la vida de su mujer y de su hija como la suya propia. El padre de uno de los secuestradores albaneses que lo tuvieron en jaque en el primer film jura vengarse y aprovecha las vacaciones de la familia Mills en Estambul para llevar a cabo su plan. Una vez más parece que subestiman al ex agente de la CIA.
























La pelicula NO tiene ninguna marca... solo colocamos el nombre de esta web en las capturas






Código:
General
Format                                   : Matroska
Format version                           : Version 2
File size                                : 2.66 GiB
Duration                                 : 1h 38mn
Overall bit rate                         : 3 868 Kbps
Movie name                               : www.club-hd.com
Encoded date                             : UTC 2013-01-05 05:53:54
Writing application                      : mkvmerge v5.2.1 ('A Far Off Place') built on Jan  2 2012 23:21:10
Writing library                          : libebml v1.2.3 + libmatroska v1.3.0

Video
ID                                       : 1
Format                                   : AVC
Format/Info                              : Advanced Video Codec
Format profile                           : High@L4.1
Format settings, CABAC                   : Yes
Format settings, ReFrames                : 5 frames
Codec ID                                 : V_MPEG4/ISO/AVC
Duration                                 : 1h 38mn
Bit rate                                 : 2 780 Kbps
Width                                    : 1 280 pixels
Height                                   : 534 pixels
Display aspect ratio                     : 2.40:1
Frame rate mode                          : Constant
Frame rate                               : 23.976 fps
Color space                              : YUV
Chroma subsampling                       : 4:2:0
Bit depth                                : 8 bits
Scan type                                : Progressive
Bits/(Pixel*Frame)                       : 0.170
Stream size                              : 1.86 GiB (70%)
Title                                    : www.club-hd.com
Writing library                          : x264 core 129 r2230 1cffe9f
Language                                 : English
Default                                  : Yes
Forced                                   : No

Audio #1
ID                                       : 2
Format                                   : AC-3
Format/Info                              : Audio Coding 3
Mode extension                           : CM (complete main)
Format settings, Endianness              : Big
Codec ID                                 : A_AC3
Duration                                 : 1h 38mn
Bit rate mode                            : Constant
Bit rate                                 : 448 Kbps
Channel(s)                               : 6 channels
Channel positions                        : Front: L C R, Side: L R, LFE
Sampling rate                            : 48.0 KHz
Bit depth                                : 16 bits
Compression mode                         : Lossy
Stream size                              : 315 MiB (12%)
Title                                    : www.club-hd.com  >>  Latino
Language                                 : Spanish
Default                                  : Yes
Forced                                   : No

Audio #2
ID                                       : 3
Format                                   : AC-3
Format/Info                              : Audio Coding 3
Mode extension                           : CM (complete main)
Format settings, Endianness              : Big
Codec ID                                 : A_AC3
Duration                                 : 1h 38mn
Bit rate mode                            : Constant
Bit rate                                 : 640 Kbps
Channel(s)                               : 6 channels
Channel positions                        : Front: L C R, Side: L R, LFE
Sampling rate                            : 48.0 KHz
Bit depth                                : 16 bits
Compression mode                         : Lossy
Stream size                              : 450 MiB (17%)
Title                                    : www.club-hd.com  >>  Inglés
Language                                 : English
Default                                  : No
Forced                                   : No

Text #1
ID                                       : 4
Format                                   : UTF-8
Codec ID                                 : S_TEXT/UTF8
Codec ID/Info                            : UTF-8 Plain Text
Language                                 : Spanish
Default                                  : No
Forced                                   : No

Text #2
ID                                       : 5
Format                                   : UTF-8
Codec ID                                 : S_TEXT/UTF8
Codec ID/Info                            : UTF-8 Plain Text
Language                                 : English
Default                                  : No
Forced                                   : No

Menu
00:00:00.000                             : en:00:00:00.000
00:04:18.300                             : en:00:04:18.300
00:07:24.694                             : en:00:07:24.694
00:12:00.219                             : en:00:12:00.219
00:14:37.418                             : en:00:14:37.418
00:17:53.698                             : en:00:17:53.698
00:21:34.835                             : en:00:21:34.835
00:24:44.149                             : en:00:24:44.149
00:27:48.792                             : en:00:27:48.792
00:33:00.812                             : en:00:33:00.812
00:37:41.134                             : en:00:37:41.134
00:41:00.750                             : en:00:41:00.750
00:44:25.079                             : en:00:44:25.079
00:48:50.427                             : en:00:48:50.427
00:54:17.129                             : en:00:54:17.129
01:00:45.517                             : en:01:00:45.517
01:04:28.281                             : en:01:04:28.281
01:08:47.915                             : en:01:08:47.915
01:11:13.603                             : en:01:11:13.603
01:15:43.956                             : en:01:15:43.956
01:21:35.057                             : en:01:21:35.057
01:25:39.009                             : en:01:25:39.009
01:29:17.727                             : en:01:29:17.727
01:32:13.736                             : en:01:32:13.736










Enlaces de Mega y Fireload solo disponibles para Miembros VIP

Compra tu Membresía VIP y apoya a Club-HD!

ATENCIÓN! Tenemos TODO el material de Club-HD disponible por Mega y Fireload, enlaces 100% activos y online hasta la fecha

Llévate tus cuentas Mega PRO II gratis con tu membresía VIP!
Todos los posts vivos con links de Mega y Fireload.
Todo el material de Club-HD desbloqueado y sin publicidad.

Click Aquí para más información.




Enlaces de Mega y Fireload solo disponibles para Miembros VIP

Compra tu Membresía VIP y apoya a Club-HD!

ATENCIÓN! Tenemos TODO el material de Club-HD disponible por Mega y Fireload, enlaces 100% activos y online hasta la fecha

Llévate tus cuentas Mega PRO II gratis con tu membresía VIP!
Todos los posts vivos con links de Mega y Fireload.
Todo el material de Club-HD desbloqueado y sin publicidad.

Click Aquí para más información.



Para ver este contenido oculto, debes dar click en una de las siguientes reacciones : Like Like, Love Love, Haha Haha, Wow Wow, Sad Sad, Angry Angry



Para ver este contenido oculto, debes dar click en una de las siguientes reacciones : Like Like, Love Love, Haha Haha, Wow Wow, Sad Sad, Angry Angry
 
Última edición:

Mate78

Ladron de mi cerebro
Miembro del Staff
Súper Moderador
Registro
27 Ago 2012
Mensajes
1.235
Reacciones
918
Puntos
113

Reputation:

Gracias R21 !!!!!:aplausos:
 

sunker-123

New member
Registro
27 Ago 2012
Mensajes
2.433
Reacciones
200
Puntos
0
Edad
30

Reputation:

Muchas Gracias R21, me la llevo...:dplgar:
 

Howl

Well-known member
Miembro VIP
Registro
28 Ago 2012
Mensajes
1.765
Reacciones
87
Puntos
48

Reputation:

excelente peli muchas gracias :dplgar:
 

Usuarios Que Están Viendo Este Tema (Total: 1, Miembros: 0, Invitados: 1)

Arriba