Taken 2 (2012) WEB-DL m-720p Dual Latino-Inglés [Subt. Esp-Ing] + [EXTRA Alternate Ending](Thriller. Acción)

Maestro Revolver

Well-known member
Miembro del Staff
Administrador
Registro
9 Ago 2012
Mensajes
3.569
Reacciones
59.366
Puntos
113

Reputation:









TÍTULO ORIGINAL: Taken 2
AÑO: 2012
DURACIÓN: 91 min.
PAÍS: Francia
DIRECTOR: Olivier Megaton
GUIÓN: Luc Besson, Robert Mark Kamen
REPARTO: Liam Neeson, Maggie Grace, Luke Grimes, Famke Janssen, Rade Serbedzija, Leland Orser, Jon Gries
PRODUCTORA: Europa Corp.
GÉNERO: Thriller. Acción | Secuela
: http://www.imdb.com/title/tt1397280/






Aunque ya está retirado, Bryan Mills (Liam Neeson) se ve obligado a utilizar todos sus recursos y habilidades de agente de la CIA para salvar tanto la vida de su mujer y de su hija como la suya propia. El padre de uno de los secuestradores albaneses que lo tuvieron en jaque en el primer film jura vengarse y aprovecha las vacaciones de la familia Mills en Estambul para llevar a cabo su plan. Una vez más parece que subestiman al ex agente de la CIA.
























La pelicula NO tiene ninguna marca... solo colocamos el nombre de esta web en las capturas






Código:
[COLOR=#A52A2A][B][U][SIZE=4]Taken 2 (2012) WEB-DL m-720p Dual Latino-Inglés [Subt. Esp-Ing][/SIZE][/U][/B][/COLOR]

General
Format                                   : Matroska
Format version                           : Version 2
File size                                : 2.07 GiB
Duration                                 : 1h 32mn
Overall bit rate                         : 3 193 Kbps
Movie name                               : www.club-hd.com
Encoded date                             : UTC 2012-12-21 01:02:12
Writing application                      : mkvmerge v5.7.0 ('The Whirlwind') built on Jul  8 2012 20:08:51
Writing library                          : libebml v1.2.3 + libmatroska v1.3.0

Video
ID                                       : 1
Format                                   : AVC
Format/Info                              : Advanced Video Codec
Format profile                           : High@L4.1
Format settings, CABAC                   : Yes
Format settings, ReFrames                : 9 frames
Codec ID                                 : V_MPEG4/ISO/AVC
Duration                                 : 1h 32mn
Bit rate                                 : 2 556 Kbps
Width                                    : 1 280 pixels
Height                                   : 534 pixels
Display aspect ratio                     : 2.40:1
Frame rate mode                          : Constant
Frame rate                               : 23.976 fps
Color space                              : YUV
Chroma subsampling                       : 4:2:0
Bit depth                                : 8 bits
Scan type                                : Progressive
Bits/(Pixel*Frame)                       : 0.156
Stream size                              : 1.61 GiB (78%)
Title                                    : www.club-hd.com
Writing library                          : x264 core 129 r2230 1cffe9f
Language                                 : English
Default                                  : Yes
Forced                                   : No

Audio #1
ID                                       : 2
Format                                   : AC-3
Format/Info                              : Audio Coding 3
Mode extension                           : CM (complete main)
Format settings, Endianness              : Big
Codec ID                                 : A_AC3
Duration                                 : 1h 32mn
Bit rate mode                            : Constant
Bit rate                                 : 256 Kbps
Channel(s)                               : 2 channels
Channel positions                        : Front: L R
Sampling rate                            : 48.0 KHz
Bit depth                                : 16 bits
Compression mode                         : Lossy
Stream size                              : 170 MiB (8%)
Title                                    : www.club-hd.com  >>  Latino
Language                                 : Spanish
Default                                  : Yes
Forced                                   : No

Audio #2
ID                                       : 3
Format                                   : AC-3
Format/Info                              : Audio Coding 3
Mode extension                           : CM (complete main)
Format settings, Endianness              : Big
Codec ID                                 : A_AC3
Duration                                 : 1h 32mn
Bit rate mode                            : Constant
Bit rate                                 : 384 Kbps
Channel(s)                               : 6 channels
Channel positions                        : Front: L C R, Side: L R, LFE
Sampling rate                            : 48.0 KHz
Bit depth                                : 16 bits
Compression mode                         : Lossy
Stream size                              : 255 MiB (12%)
Title                                    : www.club-hd.com  >>  Inglés
Language                                 : English
Default                                  : No
Forced                                   : No

Text #1
ID                                       : 4
Format                                   : UTF-8
Codec ID                                 : S_TEXT/UTF8
Codec ID/Info                            : UTF-8 Plain Text
Language                                 : Spanish
Default                                  : No
Forced                                   : No

Text #2
ID                                       : 5
Format                                   : UTF-8
Codec ID                                 : S_TEXT/UTF8
Codec ID/Info                            : UTF-8 Plain Text
Language                                 : English
Default                                  : No
Forced                                   : No

Menu
00:00:00.000                             : en:Chapter 1
00:04:16.000                             : en:Chapter 2
00:07:24.000                             : en:Chapter 3
00:08:51.000                             : en:Chapter 4
00:12:45.000                             : en:Chapter 5
00:16:00.000                             : en:Chapter 6
00:19:41.000                             : en:Chapter 7
00:22:06.000                             : en:Chapter 8
00:25:11.000                             : en:Chapter 9
00:30:23.000                             : en:Chapter 10
00:34:48.000                             : en:Chapter 11
00:38:07.000                             : en:Chapter 12
00:41:29.000                             : en:Chapter 13
00:45:38.000                             : en:Chapter 14
00:50:36.000                             : en:Chapter 15
00:56:37.000                             : en:Chapter 16
01:00:21.000                             : en:Chapter 17
01:04:41.000                             : en:Chapter 18
01:07:07.000                             : en:Chapter 19
01:10:28.000                             : en:Chapter 20
01:15:44.000                             : en:Chapter 21
01:19:28.000                             : en:Chapter 22
01:23:06.000                             : en:Chapter 23
01:26:02.000                             : en:Chapter 24






[COLOR=#A52A2A][B][U][SIZE=4]EXTRA Alternate Ending[/SIZE][/U][/B][/COLOR]

General
Format                                   : Matroska
Format version                           : Version 2
File size                                : 521 MiB
Duration                                 : 24mn 39s
Overall bit rate                         : 2 951 Kbps
Movie name                               : www.club-hd.com
Encoded date                             : UTC 2012-12-21 00:57:32
Writing application                      : mkvmerge v5.7.0 ('The Whirlwind') built on Jul  8 2012 20:08:51
Writing library                          : libebml v1.2.3 + libmatroska v1.3.0

Video
ID                                       : 1
Format                                   : AVC
Format/Info                              : Advanced Video Codec
Format profile                           : High@L4.1
Format settings, CABAC                   : Yes
Format settings, ReFrames                : 9 frames
Codec ID                                 : V_MPEG4/ISO/AVC
Duration                                 : 24mn 39s
Bit rate                                 : 2 565 Kbps
Width                                    : 1 280 pixels
Height                                   : 536 pixels
Display aspect ratio                     : 2.40:1
Frame rate mode                          : Constant
Frame rate                               : 23.976 fps
Color space                              : YUV
Chroma subsampling                       : 4:2:0
Bit depth                                : 8 bits
Scan type                                : Progressive
Bits/(Pixel*Frame)                       : 0.156
Stream size                              : 442 MiB (85%)
Title                                    : www.club-hd.com
Writing library                          : x264 core 129 r2230 1cffe9f
Language                                 : English
Default                                  : Yes
Forced                                   : No

Audio
ID                                       : 2
Format                                   : AC-3
Format/Info                              : Audio Coding 3
Mode extension                           : CM (complete main)
Format settings, Endianness              : Big
Codec ID                                 : A_AC3
Duration                                 : 24mn 39s
Bit rate mode                            : Constant
Bit rate                                 : 384 Kbps
Channel(s)                               : 6 channels
Channel positions                        : Front: L C R, Side: L R, LFE
Sampling rate                            : 48.0 KHz
Bit depth                                : 16 bits
Compression mode                         : Lossy
Stream size                              : 67.7 MiB (13%)
Title                                    : www.club-hd.com
Language                                 : English
Default                                  : Yes
Forced                                   : No








Para ver este contenido oculto, debes dar click en una de las siguientes reacciones : Like Like, Love Love, Haha Haha, Wow Wow, Sad Sad, Angry Angry
 
Última edición por un moderador:

enzure

Active member
Registro
28 Ago 2012
Mensajes
662
Reacciones
27
Puntos
28

Reputation:

a pesar de las malas criticas me interesa ver que tal esta
 

Nosferatu

Well-known member
Súper Moderador
Registro
31 Ago 2012
Mensajes
2.275
Reacciones
1.362
Puntos
113
Edad
44
Ubicación
Welcome to Hell!!

Reputation:

Eres enorme Master, otro Gran estreno, muy esperado por muchos.:aplausos::aplausos:

Gracias Revolver21.:LXR::LXR:
 

Yonatan

Admin
Miembro del Staff
Administrador
Registro
27 Ago 2012
Mensajes
1.768
Reacciones
3.730
Puntos
113
Edad
28
Ubicación
Chile, Sexta Región

Reputation:

wauu pense que estaria por aca a principios de enero, perfecto esta me la levo gracias maestro de maestros :LXR::LXR:
 

sunker-123

New member
Registro
27 Ago 2012
Mensajes
2.433
Reacciones
200
Puntos
0
Edad
31

Reputation:

Muchisimas Gracias R21, eres el mejor...:dplgar:
 

mx777

Well-known member
Registro
19 Sep 2012
Mensajes
1.343
Reacciones
41
Puntos
48
Edad
34

Reputation:

Sera tan buena como la pinta la gente?. Al menos la critica no juega a su favor. Opinión personal: la primera no me gusto. Me pareció mas de lo mismo. Pese a todo se agrega a descarga para la colección y filmoteca personal. Muchas gracias.
 

Usuarios Que Están Viendo Este Tema (Total: 1, Miembros: 0, Invitados: 1)

Arriba