Tears of the Sun (2003) m-720p Dual Latino-Ingles [Subt.Esp] (Bélico)

Maestro Revolver

Well-known member
Miembro del Staff
Administrador
Registro
9 Ago 2012
Mensajes
3.569
Reacciones
59.361
Puntos
113

Reputation:



Aporte Recuperado gracias a nuestro amigo Hemoaragros







TÍTULO ORIGINAL: Tears of the Sun
AÑO: 2003
DURACIÓN: 121 min.
PAÍS: USA
DIRECTOR: Antoine Fuqua
GUIÓN: Alex Lasker, Patrick Cirillo
REPARTO: Bruce Willis, Monica Bellucci, Cole Hauser, Tom Skerritt, Eamonn Walker, Nick Chinlund, Fionnula Flanagan, Malick Bowens, Johnny Messner, Paul Francis, Chad Smith, Charles Ingram
PRODUCTORA: Columbia Pictures / Revolution Studios / Cheyenne
GÉNERO: Bélico. Acción | África. Ejército






Un equipo comandado por el teniente Waters (Bruce Willis), un veterano oficial de la unidad especial SEAL, se adentra en el corazón de África con la misión de rescatar a Lena Kendrick (Monica Bellucci), una doctora americana que trabaja en una zona muy conflictiva. Pero, cuando la encuentran, ella se niega a abandonar a los refugiados y exige a Waters que los escolte a todos a través de la peligrosa jungla nigeriana. El oficial tendrá que enfrentarse a un grave dilema: obedecer las órdenes recibidas o, por el contrario, seguir los dictados de su propia conciencia.




















La pelicula NO tiene ninguna marca... solo coloque mi nombre de usuario en las capturas






Código:
General
Complete name                            : Tears of the Sun (2003) m-720p Dual Latino-Ingles [Subt.Esp].mkv
Format                                   : Matroska
Format version                           : Version 4 / Version 2
File size                                : 3.23 GiB
Duration                                 : 2h 0mn
Overall bit rate                         : 3 829 Kbps
Movie name                               : [URL="http://www.club-hd.com"]www.club-hd.com[/URL] --> Tears of the Sun (2003) m-720p Dual Latino-Ingles [Subt.Esp]
Encoded date                             : UTC 2014-06-12 00:23:27
Writing application                      : mkvmerge v6.8.0 ('Theme for Great Cities') 64bit built on Mar  2 2014 21:34:26
Writing library                          : libebml v1.3.0 + libmatroska v1.4.1

Video
ID                                       : 1
Format                                   : AVC
Format/Info                              : Advanced Video Codec
Format profile                           : High@L3.1
Format settings, CABAC                   : No
Format settings, ReFrames                : 4 frames
Codec ID                                 : V_MPEG4/ISO/AVC
Duration                                 : 2h 0mn
Bit rate                                 : 3 000 Kbps
Width                                    : 1 280 pixels
Height                                   : 534 pixels
Display aspect ratio                     : 2.40:1
Frame rate mode                          : Constant
Frame rate                               : 23.976 fps
Color space                              : YUV
Chroma subsampling                       : 4:2:0
Bit depth                                : 8 bits
Scan type                                : Progressive
Bits/(Pixel*Frame)                       : 0.183
Stream size                              : 2.41 GiB (75%)
Title                                    : Tears of the Sun (2003) m-720p Dual Latino-Ingles [Subt.Esp]
Writing library                          : x264 core 112
Encoding settings                        : cabac=0 / ref=4 / deblock=1:-1:-1 / analyse=0x3:0x133 / me=umh / subme=8 / psy=1 / psy_rd=1.00:0.00 / mixed_ref=1 

/ me_range=20 / chroma_me=1 / trellis=1 / 8x8dct=1 / cqm=0 / deadzone=21,11 / fast_pskip=1 / chroma_qp_offset=-2 / threads=6 / sliced_threads=0 / nr=0 / 

decimate=1 / interlaced=0 / constrained_intra=0 / bframes=4 / b_pyramid=2 / b_adapt=2 / b_bias=0 / direct=1 / weightb=1 / open_gop=0 / weightp=2 / keyint=240 

/ keyint_min=23 / scenecut=40 / intra_refresh=0 / rc_lookahead=50 / rc=abr / mbtree=1 / bitrate=3000 / ratetol=1.0 / qcomp=0.60 / qpmin=3 / qpmax=51 / 

qpstep=4 / ip_ratio=1.40 / aq=1:1.00
Language                                 : English
Default                                  : Yes
Forced                                   : No
Color primaries                          : BT.709
Transfer characteristics                 : BT.709
Matrix coefficients                      : BT.709

Audio #1
ID                                       : 2
Format                                   : AC-3
Format/Info                              : Audio Coding 3
Mode extension                           : CM (complete main)
Format settings, Endianness              : Big
Codec ID                                 : A_AC3
Duration                                 : 2h 0mn
Bit rate mode                            : Constant
Bit rate                                 : 448 Kbps
Channel(s)                               : 6 channels
Channel positions                        : Front: L C R, Side: L R, LFE
Sampling rate                            : 48.0 KHz
Bit depth                                : 16 bits
Compression mode                         : Lossy
Stream size                              : 387 MiB (12%)
Title                                    : Tears of the Sun (2003) - Español Latino AC3 5.1
Language                                 : Spanish
Default                                  : Yes
Forced                                   : No

Audio #2
ID                                       : 3
Format                                   : AC-3
Format/Info                              : Audio Coding 3
Mode extension                           : CM (complete main)
Format settings, Endianness              : Big
Codec ID                                 : A_AC3
Duration                                 : 2h 0mn
Bit rate mode                            : Constant
Bit rate                                 : 448 Kbps
Channel(s)                               : 6 channels
Channel positions                        : Front: L C R, Side: L R, LFE
Sampling rate                            : 48.0 KHz
Bit depth                                : 16 bits
Compression mode                         : Lossy
Stream size                              : 387 MiB (12%)
Title                                    : Tears of the Sun (2003) - Inglés AC3 5.1
Language                                 : English
Default                                  : No
Forced                                   : No

Text
ID                                       : 4
Format                                   : UTF-8
Codec ID                                 : S_TEXT/UTF8
Codec ID/Info                            : UTF-8 Plain Text
Title                                    : Tears of the Sun (2003) - Subtítulos Español
Language                                 : Spanish
Default                                  : No
Forced                                   : No










Enlaces de Mega y Fireload solo disponibles para Miembros VIP

Compra tu Membresía VIP y apoya a Club-HD!

ATENCIÓN! Tenemos TODO el material de Club-HD disponible por Mega y Fireload, enlaces 100% activos y online hasta la fecha

Llévate tus cuentas Mega PRO II gratis con tu membresía VIP!
Todos los posts vivos con links de Mega y Fireload.
Todo el material de Club-HD desbloqueado y sin publicidad.

Click Aquí para más información.




Enlaces de Mega y Fireload solo disponibles para Miembros VIP

Compra tu Membresía VIP y apoya a Club-HD!

ATENCIÓN! Tenemos TODO el material de Club-HD disponible por Mega y Fireload, enlaces 100% activos y online hasta la fecha

Llévate tus cuentas Mega PRO II gratis con tu membresía VIP!
Todos los posts vivos con links de Mega y Fireload.
Todo el material de Club-HD desbloqueado y sin publicidad.

Click Aquí para más información.


Para ver este contenido oculto, debes dar click en una de las siguientes reacciones : Like Like, Love Love, Haha Haha, Wow Wow, Sad Sad, Angry Angry

 
Última edición:

Usuarios Que Están Viendo Este Tema (Total: 1, Miembros: 0, Invitados: 1)

Arriba