Ted Lasso: The Complete First Season (2020) 720p APTV Dual Latino-Inglés [Subt.Esp] (Comedia)

Tr3vor

Well-known member
Uploader
Colaborador
Registro
17 May 2018
Mensajes
1.079
Reacciones
11.095
Puntos
113
Edad
32

Reputation:






Ted Lasso, un entrenador de fútbol de poca monta, es contratado para entrenar a un equipo de fútbol profesional en Inglaterra, a pesar de no tener experiencia como entrenador.


MEDIAINFO
Código:
Format                      : Matroska
Format version              : Version 4
File size                   : 969 MiB
Duration                    : 30 min 55 s
Overall bit rate            : 4 380 kb/s
Encoded date                : UTC 2021-09-08 23:49:49
Writing application         : mkvmerge v59.0.0 ('Shining Star') 64-bit
Writing library             : libebml v1.4.2 + libmatroska v1.6.4

Video
ID                          : 1
Format                      : AVC
Format/Info                 : Advanced Video Codec
Format profile              : High@L3.2
Format settings             : CABAC / 5 Ref Frames
Format settings, CABAC      : Yes
Format settings, Reference  : 5 frames
Codec ID                    : V_MPEG4/ISO/AVC
Duration                    : 30 min 55 s
Bit rate                    : 2 841 kb/s
Width                       : 1 356 pixels
Height                      : 678 pixels
Display aspect ratio        : 2.000
Frame rate mode             : Variable
Frame rate                  : 25.527 FPS
Color space                 : YUV
Chroma subsampling          : 4:2:0
Bit depth                   : 8 bits
Scan type                   : Progressive
Bits/(Pixel*Frame)          : 0.121
Stream size                 : 629 MiB (65%)
Default                     : Yes
Forced                      : No
Color range                 : Limited
Color primaries             : BT.709
Transfer characteristics    : BT.709
Matrix coefficients         : BT.709

Audio #1
ID                          : 2
Format                      : E-AC-3 JOC
Format/Info                 : Enhanced AC-3 with Joint Object Coding
Commercial name             : Dolby Digital Plus with Dolby Atmos
Codec ID                    : A_EAC3
Duration                    : 30 min 55 s
Bit rate mode               : Constant
Bit rate                    : 768 kb/s
Channel(s)                  : 6 channels
Channel layout              : L R C LFE Ls Rs
Sampling rate               : 48.0 kHz
Frame rate                  : 31.250 FPS (1536 SPF)
Compression mode            : Lossy
Stream size                 : 170 MiB (18%)
Title                       : English
Language                    : English
Service kind                : Complete Main
Default                     : Yes
Forced                      : No
Complexity index            : 16
Number of dynamic objects   : 15
Bed channel count           : 1 channel
Bed channel configuration   : LFE

Audio #2
ID                          : 3
Format                      : E-AC-3 JOC
Format/Info                 : Enhanced AC-3 with Joint Object Coding
Commercial name             : Dolby Digital Plus with Dolby Atmos
Codec ID                    : A_EAC3
Duration                    : 30 min 55 s
Bit rate mode               : Constant
Bit rate                    : 768 kb/s
Channel(s)                  : 6 channels
Channel layout              : L R C LFE Ls Rs
Sampling rate               : 48.0 kHz
Frame rate                  : 31.250 FPS (1536 SPF)
Compression mode            : Lossy
Stream size                 : 170 MiB (18%)
Title                       : Español (Latinoamérica)
Language                    : Spanish
Service kind                : Complete Main
Default                     : Yes
Forced                      : No
Complexity index            : 16
Number of dynamic objects   : 15
Bed channel count           : 1 channel
Bed channel configuration   : LFE

Text #1
ID                          : 4
Format                      : UTF-8
Codec ID                    : S_TEXT/UTF8
Codec ID/Info               : UTF-8 Plain Text
Duration                    : 30 min 8 s
Bit rate                    : 88 b/s
Count of elements           : 571
Stream size                 : 19.5 KiB (0%)
Title                       : English
Language                    : English
Default                     : No
Forced                      : No

Text #2
ID                          : 5
Format                      : UTF-8
Codec ID                    : S_TEXT/UTF8
Codec ID/Info               : UTF-8 Plain Text
Duration                    : 30 min 20 s
Bit rate                    : 96 b/s
Count of elements           : 652
Stream size                 : 21.5 KiB (0%)
Title                       : English
Language                    : English
Default                     : No
Forced                      : No

Text #3
ID                          : 6
Format                      : UTF-8
Codec ID                    : S_TEXT/UTF8
Codec ID/Info               : UTF-8 Plain Text
Duration                    : 30 min 39 s
Bit rate                    : 80 b/s
Count of elements           : 579
Stream size                 : 18.2 KiB (0%)
Title                       : Español (Latinoamérica)
Language                    : Spanish
Default                     : No
Forced                      : No

Text #4
ID                          : 7
Format                      : UTF-8
Codec ID                    : S_TEXT/UTF8
Codec ID/Info               : UTF-8 Plain Text
Duration                    : 30 min 20 s
Bit rate                    : 92 b/s
Count of elements           : 656
Stream size                 : 20.6 KiB (0%)
Title                       : Español (Latinoamérica)
Language                    : Spanish
Default                     : No
Forced                      : No

Text #5
ID                          : 8
Format                      : UTF-8
Codec ID                    : S_TEXT/UTF8
Codec ID/Info               : UTF-8 Plain Text
Duration                    : 26 min 27 s
Bit rate                    : 0 b/s
Count of elements           : 5
Stream size                 : 112 Bytes (0%)
Title                       : Español (Latinoamérica) (forced)
Language                    : Spanish
Default                     : No
Forced                      : No












Enlaces de Mega y Fireload solo disponibles para Miembros VIP

Compra tu Membresía VIP y apoya a Club-HD!

ATENCIÓN! Tenemos TODO el material de Club-HD disponible por Mega y Fireload, enlaces 100% activos y online hasta la fecha

Llévate tus cuentas Mega PRO II gratis con tu membresía VIP!
Todos los posts vivos con links de Mega y Fireload.
Todo el material de Club-HD desbloqueado y sin publicidad.

Click Aquí para más información.


Enlaces de Mega y Fireload solo disponibles para Miembros VIP

Compra tu Membresía VIP y apoya a Club-HD!

ATENCIÓN! Tenemos TODO el material de Club-HD disponible por Mega y Fireload, enlaces 100% activos y online hasta la fecha

Llévate tus cuentas Mega PRO II gratis con tu membresía VIP!
Todos los posts vivos con links de Mega y Fireload.
Todo el material de Club-HD desbloqueado y sin publicidad.

Click Aquí para más información.
 

Tr3vor

Well-known member
Uploader
Colaborador
Registro
17 May 2018
Mensajes
1.079
Reacciones
11.095
Puntos
113
Edad
32

Reputation:

a ti por agradecer
 

Usuarios Que Están Viendo Este Tema (Total: 1, Miembros: 0, Invitados: 1)

Arriba