Tekken (2010) 720p BDRip Dual Latino-Inglés [Subt. Esp] (Acción. Ciencia ficción. Artes marciales)

Max

Admin
Miembro del Staff
Administrador
Miembro VIP
Registro
8 Ago 2012
Mensajes
6.036
Ubicación
Disco C




Título original: Tekken
Año: 2010
Duración: 92 min.
País: Japón
Director: Dwight H. Little
Guión: Alan B. McElroy, Michael Colleary, Mike Werb
Música: John Hunter
Fotografía: Gina La Piana
Reparto: Jon Foo, Cary-Hiroyuki Tagawa, Ian Anthony Dale, Kelly Overton, Luke Goss, Cung Le, Gary Daniels, Candice Hillebrand, Marian Zapico, Darin Henson, Anton Kasabov, Tamlyn Tomita, Ian Anthony Dale, Nathan Jones, Lateef Crowder, Jae Hee, Gary Ray Stearns, Roger Huerta, David Pitt, Michael Showers, Mircea Monroe
Productora: Coproducción EEUU-Japón; Crystal Sky Pictures / GAGA / Namco
Género: Acción. Ciencia ficción | Artes marciales. Videojuego

http://www.imdb.com/title/tt0411951/






En el año 2039, el mundo está dominado por grandes corporaciones. Una de ellas es la Mishima Zaibatsu, dirigida por Heihachi Mishima, que realiza periódicamente el Iron First Tournament, un torneo de lucha a nivel mundial. El protagonista es el joven Jin Kazama, un luchador callejero que se apunta al torneo para vengar la muerte de su madre, asesinada por Heihachi. Acompañado por su maestro Lucas, deberá hacer frente a varios desafíos para llegar a la meta. Adaptación libre del videojuego de Namco "Tekken".





































Código:
General
Complete name                            : Tekken (2010) 720p BDRip Dual Latino-Inglés [Subt. Esp].mkv
Format                                   : Matroska
Format version                           : Version 4 / Version 2
File size                                : 3.24 GiB
Duration                                 : 1h 31mn
Overall bit rate                         : 5 089 Kbps
Movie name                               : www.club-hd.com --> Tekken (2010) 720p BDRip Dual Latino-Inglés [Subt. Esp]
Encoded date                             : UTC 2014-07-15 16:02:33
Writing application                      : mkvmerge v6.8.0 ('Theme for Great Cities') 64bit built on Mar  2 2014 21:34:26
Writing library                          : libebml v1.3.0 + libmatroska v1.4.1

Video
ID                                       : 1
Format                                   : AVC
Format/Info                              : Advanced Video Codec
Format profile                           : High@L4.1
Format settings, CABAC                   : Yes
Format settings, ReFrames                : 8 frames
Codec ID                                 : V_MPEG4/ISO/AVC
Duration                                 : 1h 31mn
Bit rate                                 : 4 000 Kbps
Width                                    : 1 280 pixels
Height                                   : 544 pixels
Display aspect ratio                     : 2.35:1
Original display aspect ratio            : 2.35:1
Frame rate mode                          : Constant
Frame rate                               : 23.976 fps
Color space                              : YUV
Chroma subsampling                       : 4:2:0
Bit depth                                : 8 bits
Scan type                                : Progressive
Bits/(Pixel*Frame)                       : 0.240
Stream size                              : 2.47 GiB (76%)
Title                                    : www.club-hd.com --> Tekken (2010) 720p BDRip Dual Latino-Inglés [Subt. Esp]
Writing library                          : x264 core 120
Encoding settings                        : cabac=1 / ref=9 / deblock=1:-2:-2 / analyse=0x3:0x133 / me=umh / subme=10 / psy=1 / psy_rd=1.00:0.00 / mixed_ref=1 / me_range=24 / chroma_me=1 / trellis=2 / 8x8dct=1 / cqm=0 / deadzone=21,11 / fast_pskip=1 / chroma_qp_offset=-2 / threads=24 / sliced_threads=0 / nr=0 / decimate=1 / interlaced=0 / bluray_compat=0 / constrained_intra=0 / bframes=3 / b_pyramid=1 / b_adapt=1 / b_bias=0 / direct=1 / weightb=1 / open_gop=0 / weightp=2 / keyint=240 / keyint_min=24 / scenecut=40 / intra_refresh=0 / rc_lookahead=50 / rc=abr / mbtree=1 / bitrate=4000 / ratetol=1.0 / qcomp=0.60 / qpmin=3 / qpmax=69 / qpstep=4 / ip_ratio=1.40 / aq=1:1.00
Language                                 : English
Default                                  : Yes
Forced                                   : No
Color primaries                          : BT.709
Transfer characteristics                 : BT.709
Matrix coefficients                      : BT.709

Audio #1
ID                                       : 2
Format                                   : AC-3
Format/Info                              : Audio Coding 3
Mode extension                           : CM (complete main)
Format settings, Endianness              : Big
Codec ID                                 : A_AC3
Duration                                 : 1h 31mn
Bit rate mode                            : Constant
Bit rate                                 : 224 Kbps
Channel(s)                               : 2 channels
Channel positions                        : Front: L R
Sampling rate                            : 48.0 KHz
Bit depth                                : 16 bits
Compression mode                         : Lossy
Stream size                              : 146 MiB (4%)
Title                                    : Tekken (2010) - Español Latino AC3 2.0
Language                                 : Spanish
Default                                  : Yes
Forced                                   : No

Audio #2
ID                                       : 3
Format                                   : AC-3
Format/Info                              : Audio Coding 3
Mode extension                           : CM (complete main)
Format settings, Endianness              : Big
Codec ID                                 : A_AC3
Duration                                 : 1h 31mn
Bit rate mode                            : Constant
Bit rate                                 : 640 Kbps
Channel(s)                               : 6 channels
Channel positions                        : Front: L C R, Side: L R, LFE
Sampling rate                            : 48.0 KHz
Bit depth                                : 16 bits
Compression mode                         : Lossy
Stream size                              : 418 MiB (13%)
Title                                    : Tekken (2010) - Inglés AC3 5.1
Language                                 : English
Default                                  : No
Forced                                   : No

Audio #3
ID                                       : 4
Format                                   : AC-3
Format/Info                              : Audio Coding 3
Mode extension                           : CM (complete main)
Format settings, Endianness              : Big
Codec ID                                 : A_AC3
Duration                                 : 1h 31mn
Bit rate mode                            : Constant
Bit rate                                 : 256 Kbps
Channel(s)                               : 2 channels
Channel positions                        : Front: L R
Sampling rate                            : 48.0 KHz
Bit depth                                : 16 bits
Compression mode                         : Lossy
Stream size                              : 167 MiB (5%)
Title                                    : Tekken (2010) - Español España AC3 2.0
Language                                 : Spanish
Default                                  : No
Forced                                   : No

Text #1
ID                                       : 5
Format                                   : UTF-8
Codec ID                                 : S_TEXT/UTF8
Codec ID/Info                            : UTF-8 Plain Text
Title                                    : Tekken (2010) - Subtítulos Español Forzados
Language                                 : Spanish
Default                                  : Yes
Forced                                   : No

Text #2
ID                                       : 6
Format                                   : UTF-8
Codec ID                                 : S_TEXT/UTF8
Codec ID/Info                            : UTF-8 Plain Text
Title                                    : Tekken (2010) - Subtítulos Español
Language                                 : Spanish
Default                                  : No
Forced                                   : No








Enlaces de Mega y Google Drive solo disponibles para Miembros VIP

Compra tu Membresía VIP y apoya a Club-HD!

ATENCIÓN! Tenemos TODO el material de Club-HD disponible por Mega y Google Drive, enlaces 100% activos y online hasta la fecha

Llévate tus cuentas Mega PRO III gratis con tu membresía VIP!
Todos los posts vivos con links de Mega y Google Drive.
Todo el material de Club-HD desbloqueado y sin publicidad.

Click Aquí para más información.


Para ver este contenido oculto, debes dar click en una de las siguientes reacciones : Like Like, Love Love, Haha Haha, Wow Wow, Sad Sad, Angry Angry

 
Última edición:

Mate78

Ladron de mi cerebro
Miembro del Staff
Súper Moderador
Miembro VIP
Registro
27 Ago 2012
Mensajes
1.244
Re: Tekken (2010) 720p BDRip Dual Inglés-Español [Subt. Esp] (Acción. Ciencia ficción. Artes marciales)

:dplgar:Te has pasado MAX , muchas graciasss:dplgar:
 

edavid

New member
Registro
12 Sep 2012
Mensajes
309
Ubicación
llavallol
Re: Tekken (2010) 720p BDRip Dual Inglés-Español [Subt. Esp] (Acción. Ciencia ficción. Artes marciales)

Desc_g_
 
Registro
28 Ago 2012
Mensajes
229
Re: Tekken (2010) 720p BDRip Dual Inglés-Español [Subt. Esp] (Acción. Ciencia ficción. Artes marciales)

gracias!!!!
 

Bladerlight99

Member
Registro
31 Ago 2012
Mensajes
393
Re: Tekken (2010) 720p BDRip Dual Inglés-Español [Subt. Esp] (Acción. Ciencia ficción. Artes marciales)

gracias
 

silnarvaez

New member
Registro
10 Jun 2013
Mensajes
580
Re: Tekken (2010) 720p BDRip Dual Inglés-Español [Subt. Esp] (Acción. Ciencia ficción. Artes marciales)

gracias amigoz
 

HemoAr

Dohko de Libra
Administrador
Uploader
Miembro VIP
Registro
9 Mar 2013
Mensajes
10.597
Ubicación
Rozan
Re: Tekken (2010) 720p BDRip Dual Inglés-Español [Subt. Esp] (Acción. Ciencia ficción. Artes marciales)

Buenisimo Max se te gradece mucho y a descarga esta version. Tb_up3:aplausos: Eres lo maximo.
 

Leo-Peru

Well-known member
Registro
27 Ago 2012
Mensajes
1.487
Ubicación
Lima
Re: Tekken (2010) 720p BDRip Dual Inglés-Español [Subt. Esp] (Acción. Ciencia ficción. Artes marciales)

:bsrs: Gracias Desc_g_
 

conejo1979

Member
Registro
30 Ago 2012
Mensajes
44
Re: Tekken (2010) 720p BDRip Dual Inglés-Español [Subt. Esp] (Acción. Ciencia ficción. Artes marciales)

gracias.....
 

Ezze

Well-known member
Miembro del Staff
Súper Moderador
Miembro VIP
Registro
28 Ago 2012
Mensajes
1.666
Ubicación
En la Torre de Observación
Re: Tekken (2010) 720p BDRip Dual Inglés-Español [Subt. Esp] (Acción. Ciencia ficción. Artes marciales)

Muchas gracias Max :aplausos: Aunque ya me bajé la versión 1080 ;) Saludos capo bye
 

deividmetal

Active member
Registro
28 Ago 2012
Mensajes
531
Ubicación
españa
Re: Tekken (2010) 720p BDRip Dual Inglés-Español [Subt. Esp] (Acción. Ciencia ficción. Artes marciales)

la esperaba. muchas gracias
 

ricksmuro

New member
Registro
27 Ago 2012
Mensajes
170
Re: Tekken (2010) 720p BDRip Dual Inglés-Español [Subt. Esp] (Acción. Ciencia ficción. Artes marciales)

gracias
 

rickykao

Member
Registro
28 Ago 2012
Mensajes
371
Re: Tekken (2010) 720p BDRip Dual Inglés-Español [Subt. Esp] (Acción. Ciencia ficción. Artes marciales)

esta si es novedad para mii ja ja nunca vi

muchas gracias
 

christian

Well-known member
Miembro VIP
Registro
27 Ago 2012
Mensajes
4.142
Re: Tekken (2010) 720p BDRip Dual Inglés-Español [Subt. Esp] (Acción. Ciencia ficción. Artes marciales)

gracias!!
 

Sombrad

New member
Registro
27 Ago 2012
Mensajes
386
Re: Tekken (2010) 720p BDRip Dual Inglés-Español [Subt. Esp] (Acción. Ciencia ficción. Artes marciales)

un poco mas liviana q la anterior version, se agradece
 

DOMINICC29

Member
Registro
27 Ago 2012
Mensajes
500
Re: Tekken (2010) 720p BDRip Dual Inglés-Español [Subt. Esp] (Acción. Ciencia ficción. Artes marciales)

Desc_g_
 

wolfaiki

Well-known member
Registro
28 Ago 2012
Mensajes
1.627
Re: Tekken (2010) 720p BDRip Dual Inglés-Español [Subt. Esp] (Acción. Ciencia ficción. Artes marciales)

Gracias
 

Emi

New member
Registro
14 Sep 2012
Mensajes
27
Re: Tekken (2010) 720p BDRip Dual Inglés-Español [Subt. Esp] (Acción. Ciencia ficción. Artes marciales)

veremos que onda...
 

trailblazer 2.0

Well-known member
Miembro del Staff
Súper Moderador
Registro
28 Ago 2012
Mensajes
2.787
Ubicación
Ciudad Macross
Re: Tekken (2010) 720p BDRip Dual Inglés-Español [Subt. Esp] (Acción. Ciencia ficción. Artes marciales)

gracias maxter, me quedo con la 1080.

p.d. Macrossssssssssssss wh1p
 

Usuarios Que Están Viendo Este Tema (Total: 1, Miembros: 0, Invitados: 1)

Quién Leyó Este Tema (Total Miembros: 2)

Arriba