Tengo Ganas De Ti (2012) m-720p BDRip Audio Español (Romance. Drama)

Max

Admin
Miembro del Staff
Administrador
Registro
8 Ago 2012
Mensajes
5.583
Reacciones
23.722
Puntos
113
Ubicación
Disco C

Reputation:





TÍTULO ORIGINAL: Tengo ganas de ti (3MSC 2)
AÑO: 2012
DURACIÓN: 124 min.
PAÍS: España
DIRECTOR: Fernando González Molina
GUIÓN: Ramón Salazar (Novela: Federico Moccia)
MÚSICA: Manel Santisteban
FOTOGRAFÍA: Xavi Giménez
REPARTO: Mario Casas, Clara Lago, María Valverde, Nerea Camacho, Diego Martín, Andrea Duro, Marina Salas, Luis Fernández, Antonio Velázquez, Ferrán Vilajosana, Álvaro Cervantes, Carme Elías
PRODUCTORA: Antena 4 Films / Charanga Films / Estudios Hackenbush / Zeta Cinema
GÉNERO: Romance. Drama | Drama romántico. Adolescencia. Secuela

http://www.imdb.com/title/tt1797504/






Secuela de "Tres metros sobre el cielo". La sexy Gin (Clara Lago) es el nuevo amor de Hache (Mario Casas), pero éste no puede olvidar a su antigua novia, Babi (María Valverde). Hache ha vuelto a casa tras pasar una temporada en Londres, alejado del recuerdo imborrable de aquel primer amor. Para poder reconstruir su vida y olvidar el pasado, Gin parece perfecta, pues es una chica de espíritu descarado, efervescente y vital que le hace creer que es posible revivir aquella magia. Pero tarde o temprano tendrá que encontrarse de nuevo con Babi...





























Código:
General
Complete name                    : Tengo Ganas De Ti (2012) m-720p BDRip Audio Español.mkv
Format                           : Matroska
Format version                   : Version 2
File size                        : 2.60 GiB
Duration                         : 2h 3mn
Overall bit rate                 : 3 008 Kbps
Movie name                       : www.club-hd.com --> Tengo Ganas De Ti (2012) m-720p BDRip Audio Español
Encoded date                     : UTC 2012-11-04 22:41:42
Writing application              : mkvmerge v5.8.0 ('No Sleep / Pillow') built on Sep  2 2012 15:37:04
Writing library                  : libebml v1.2.3 + libmatroska v1.3.0

Video
ID                               : 1
Format                           : AVC
Format/Info                      : Advanced Video Codec
Format profile                   : High@L4.1
Format settings, CABAC           : Yes
Format settings, ReFrames        : 8 frames
Codec ID                         : V_MPEG4/ISO/AVC
Duration                         : 2h 3mn
Bit rate                         : 2 560 Kbps
Width                            : 1 280 pixels
Height                           : 544 pixels
Display aspect ratio             : 2.35:1
Frame rate                       : 24.000 fps
Color space                      : YUV
Chroma subsampling               : 4:2:0
Bit depth                        : 8 bits
Scan type                        : Progressive
Bits/(Pixel*Frame)               : 0.153
Stream size                      : 2.16 GiB (83%)
Title                            : www.club-hd.com --> Tengo Ganas De Ti (2012) m-720p BDRip Audio Español
Writing library                  : x264 core 128 r2216 198a7ea
Encoding settings                : cabac=1 / ref=9 / deblock=1:-3:-3 / analyse=0x3:0x113 / me=umh / subme=10 / psy=1 / psy_rd=1.00:0.00 / mixed_ref=1 / me_range=16 / chroma_me=1 / trellis=2 / 8x8dct=1 / cqm=0 / deadzone=21,11 / fast_pskip=1 / chroma_qp_offset=-2 / threads=12 / lookahead_threads=2 / sliced_threads=0 / nr=0 / decimate=1 / interlaced=0 / bluray_compat=0 / constrained_intra=0 / bframes=3 / b_pyramid=1 / b_adapt=1 / b_bias=0 / direct=1 / weightb=1 / open_gop=0 / weightp=2 / keyint=250 / keyint_min=24 / scenecut=40 / intra_refresh=0 / rc=2pass / mbtree=0 / bitrate=2560 / ratetol=1.0 / qcomp=0.60 / qpmin=0 / qpmax=69 / qpstep=4 / cplxblur=20.0 / qblur=0.5 / ip_ratio=1.40 / pb_ratio=1.30 / aq=1:0.80
Language                         : Spanish
Default                          : Yes
Forced                           : No

Audio
ID                               : 2
Format                           : AC-3
Format/Info                      : Audio Coding 3
Mode extension                   : CM (complete main)
Codec ID                         : A_AC3
Duration                         : 2h 3mn
Bit rate mode                    : Constant
Bit rate                         : 448 Kbps
Channel(s)                       : 6 channels
Channel positions                : Front: L C R, Side: L R, LFE
Sampling rate                    : 48.0 KHz
Bit depth                        : 16 bits
Compression mode                 : Lossy
Stream size                      : 396 MiB (15%)
Title                            : Tengo Ganas De Ti (2012) - Español AC3 5.1
Language                         : Spanish
Default                          : Yes
Forced                           : No

Menu
00:00:00.000                     : en:Chapter 1
00:16:10.875                     : en:Chapter 2
00:30:11.333                     : en:Chapter 3
00:44:48.167                     : en:Chapter 4
01:00:22.083                     : en:Chapter 5
01:15:56.042                     : en:Chapter 6
01:30:29.000                     : en:Chapter 7
01:45:02.333                     : en:Chapter 8










Enlaces de Mega y Fireload solo disponibles para Miembros VIP

Compra tu Membresía VIP y apoya a Club-HD!

ATENCIÓN! Tenemos TODO el material de Club-HD disponible por Mega y Fireload, enlaces 100% activos y online hasta la fecha

Llévate tus cuentas Mega PRO II gratis con tu membresía VIP!
Todos los posts vivos con links de Mega y Fireload.
Todo el material de Club-HD desbloqueado y sin publicidad.

Click Aquí para más información.




Enlaces de Mega y Fireload solo disponibles para Miembros VIP

Compra tu Membresía VIP y apoya a Club-HD!

ATENCIÓN! Tenemos TODO el material de Club-HD disponible por Mega y Fireload, enlaces 100% activos y online hasta la fecha

Llévate tus cuentas Mega PRO II gratis con tu membresía VIP!
Todos los posts vivos con links de Mega y Fireload.
Todo el material de Club-HD desbloqueado y sin publicidad.

Click Aquí para más información.


Para ver este contenido oculto, debes dar click en una de las siguientes reacciones : Like Like, Love Love, Haha Haha, Wow Wow, Sad Sad, Angry Angry

 
Última edición por un moderador:

Yonatan

Admin
Miembro del Staff
Administrador
Registro
27 Ago 2012
Mensajes
1.768
Reacciones
3.728
Puntos
113
Edad
28
Ubicación
Chile, Sexta Región

Reputation:

Gracias max.. pero ya me lleve la 1080p gracias de todas formas :D
 

Mate78

Ladron de mi cerebro
Miembro del Staff
Súper Moderador
Registro
27 Ago 2012
Mensajes
1.235
Reacciones
918
Puntos
113

Reputation:

buenisima querido max , graciasss:dplgar:
 

Usuarios Que Están Viendo Este Tema (Total: 1, Miembros: 0, Invitados: 1)

Arriba