The Amazing Spider-Man (2012) m-720p Dual Latino-Inglés [Subt. Esp-Ing] (Fantástico. Acción. Romance)

Maestro Revolver

Well-known member
Miembro del Staff
Administrador
Registro
9 Ago 2012
Mensajes
3.567








TÍTULO ORIGINAL: The Amazing Spider-Man (The Amazing Spiderman)
AÑO: 2012
DURACIÓN: 136 min.
PAÍS: USA
DIRECTOR: Marc Webb
GUIÓN: Steve Kloves, James Vanderbilt, Alvin Sargent (Personajes: Stan Lee, Steve Ditko)
REPARTO: Andrew Garfield, Emma Stone, Rhys Ifans, Sally Field, Martin Sheen, Denis Leary, Campbell Scott, Embeth Davidtz, Irrfan Khan, C. Thomas Howell, Stan Lee
PRODUCTORA: Sony Pictures / Columbia Pictures / Marvel Studios
GÉNERO: Fantástico. Acción. Romance | Adolescencia. Superhéroes. Cómic. Marvel Comics. 3-D
http://www.imdb.com/title/tt0948470/






Como la mayoría de los adolescentes de su edad, Peter está intentando descubrir quién es y cómo ha llegado a ser lo que es. En su viaje para atar los cabos de su pasado descubre un secreto que guardaba su padre, un secreto que finalmente dará forma a su destino como Spiderman.

























La pelicula NO tiene ninguna marca... solo colocamos el nombre de esta web en las capturas






Código:
General
Format                           : Matroska
Format version                   : Version 2
File size                        : 3.16 GiB
Duration                         : 2h 16mn
Overall bit rate                 : 3 323 Kbps
Movie name                       : www.club-hd.com
Encoded date                     : UTC 2012-10-26 02:11:43
Writing application              : mkvmerge v5.7.0 ('The Whirlwind') built on Jul  8 2012 20:08:51
Writing library                  : libebml v1.2.3 + libmatroska v1.3.0

Video
ID                               : 1
Format                           : AVC
Format/Info                      : Advanced Video Codec
Format profile                   : High@L4.1
Format settings, CABAC           : Yes
Format settings, ReFrames        : 8 frames
Codec ID                         : V_MPEG4/ISO/AVC
Duration                         : 2h 16mn
Bit rate                         : 2 489 Kbps
Width                            : 1 280 pixels
Height                           : 536 pixels
Display aspect ratio             : 2.40:1
Frame rate                       : 23.976 fps
Color space                      : YUV
Chroma subsampling               : 4:2:0
Bit depth                        : 8 bits
Scan type                        : Progressive
Bits/(Pixel*Frame)               : 0.151
Stream size                      : 2.31 GiB (73%)
Title                            : www.club-hd.com
Writing library                  : x264 core 125 r2200 999b753
Language                         : English
Default                          : Yes
Forced                           : No

Audio #1
ID                               : 2
Format                           : AC-3
Format/Info                      : Audio Coding 3
Mode extension                   : CM (complete main)
Codec ID                         : A_AC3
Duration                         : 2h 16mn
Bit rate mode                    : Constant
Bit rate                         : 384 Kbps
Channel(s)                       : 6 channels
Channel positions                : Front: L C R, Side: L R, LFE
Sampling rate                    : 48.0 KHz
Bit depth                        : 16 bits
Compression mode                 : Lossy
Delay relative to video          : 24ms
Stream size                      : 374 MiB (12%)
Title                            : www.club-hd.com  >>  Latino
Language                         : Spanish
Default                          : Yes
Forced                           : No

Audio #2
ID                               : 3
Format                           : AC-3
Format/Info                      : Audio Coding 3
Mode extension                   : CM (complete main)
Codec ID                         : A_AC3
Duration                         : 2h 16mn
Bit rate mode                    : Constant
Bit rate                         : 448 Kbps
Channel(s)                       : 6 channels
Channel positions                : Front: L C R, Side: L R, LFE
Sampling rate                    : 48.0 KHz
Bit depth                        : 16 bits
Compression mode                 : Lossy
Stream size                      : 437 MiB (13%)
Title                            : www.club-hd.com  >>  Inglés
Language                         : English
Default                          : No
Forced                           : No

Text #1
ID                               : 4
Format                           : UTF-8
Codec ID                         : S_TEXT/UTF8
Codec ID/Info                    : UTF-8 Plain Text
Language                         : Spanish
Default                          : No
Forced                           : No

Text #2
ID                               : 5
Format                           : UTF-8
Codec ID                         : S_TEXT/UTF8
Codec ID/Info                    : UTF-8 Plain Text
Language                         : English
Default                          : No
Forced                           : No










Enlaces de Mega y Google Drive solo disponibles para Miembros VIP

Compra tu Membresía VIP y apoya a Club-HD!

ATENCIÓN! Tenemos TODO el material de Club-HD disponible por Mega y Google Drive, enlaces 100% activos y online hasta la fecha

Llévate tus cuentas Mega PRO III gratis con tu membresía VIP!
Todos los posts vivos con links de Mega y Google Drive.
Todo el material de Club-HD desbloqueado y sin publicidad.

Click Aquí para más información.



Enlaces de Mega y Google Drive solo disponibles para Miembros VIP

Compra tu Membresía VIP y apoya a Club-HD!

ATENCIÓN! Tenemos TODO el material de Club-HD disponible por Mega y Google Drive, enlaces 100% activos y online hasta la fecha

Llévate tus cuentas Mega PRO III gratis con tu membresía VIP!
Todos los posts vivos con links de Mega y Google Drive.
Todo el material de Club-HD desbloqueado y sin publicidad.

Click Aquí para más información.


Para ver este contenido oculto, debes dar click en una de las siguientes reacciones : Like Like, Love Love, Haha Haha, Wow Wow, Sad Sad, Angry Angry

 
Última edición:

Omar Herrera

Well-known member
Miembro del Staff
Súper Moderador
Miembro VIP
Registro
27 Ago 2012
Mensajes
1.236
Edad
33
Ubicación
Managua
Para quienes la querian es 720p Amigos.. aqui les dejo el Master Revolver
:aplausos:
 

Yonatan

Admin
Miembro del Staff
Administrador
Miembro VIP
Registro
27 Ago 2012
Mensajes
1.767
Edad
29
Ubicación
Chile, Sexta Región
grande maestro esta si me la llevo, hace mucho rato que actualizo la pagina jeje la revisaba cada 2 minutos Hurr4hHurr4h gracias revolver maestro
saludos amigo
 

jpc

New member
Registro
27 Ago 2012
Mensajes
131
Edad
30
muchas gracias por la peli esperadisima :D saludos!!! Desc_g_
 

Usuarios Que Están Viendo Este Tema (Total: 1, Miembros: 0, Invitados: 1)

Quién Leyó Este Tema (Total Miembros: 1)

Arriba