• Este aviso va dirigido a todos los nuevos miembros recien llegados a Club-HD. Les recordamos que la direccion URL de este sitio web es , asi que deben acceder únicamente por esta URL. Sean todos bienvenidos al Club!

The Assent (2019) 1080p AMZN WEB-DL Dual Latino-Inglés [Subt. Esp-Ing] (Terror. Sobrenatural)

Tk

K.D.S 😳
Diseñador
Uploader
Miembro VIP
Registrado
1 May 2017
Mensajes
377
Puntos de reacción
4,585
Puntos
93
Sitio web
www.flickr.com






Un viudo busca en contra de su voluntad la ayuda de un sacerdote caído en desgracia para salvar así a su hijo, quien cree está poseído por el Diablo.















Código:
General
Unique ID                                : 71406272965409193216677869426861163111 (0x35B859121447E05ABF4385D5CC284267)
Complete name                            : The Assent (2019) 1080p AMZN WEB-DL Dual Latino-Inglés.mkv
Format                                   : Matroska
Format version                           : Version 4
File size                                : 4.23 GiB
Duration                                 : 1 h 27 min
Overall bit rate                         : 6 893 kb/s
Movie name                               : The Assent (2019) 1080p AMZN WEB-DL Dual Latino-Inglés
Encoded date                             : UTC 2020-06-08 08:13:12
Writing application                      : mkvmerge v46.0.0 ('No Deeper Escape') 64-bit
Writing library                          : libebml v1.3.10 + libmatroska v1.5.2

Video
ID                                       : 1
Format                                   : AVC
Format/Info                              : Advanced Video Codec
Format profile                           : High@L4
Format settings                          : CABAC / 4 Ref Frames
Format settings, CABAC                   : Yes
Format settings, Reference frames        : 4 frames
Codec ID                                 : V_MPEG4/ISO/AVC
Duration                                 : 1 h 27 min
Bit rate mode                            : Constant
Bit rate                                 : 5 995 kb/s
Nominal bit rate                         : 10 000 kb/s
Width                                    : 1 920 pixels
Height                                   : 816 pixels
Display aspect ratio                     : 2.35:1
Frame rate mode                          : Constant
Frame rate                               : 23.976 (24000/1001) FPS
Color space                              : YUV
Chroma subsampling                       : 4:2:0
Bit depth                                : 8 bits
Scan type                                : Progressive
Bits/(Pixel*Frame)                       : 0.160
Stream size                              : 3.68 GiB (87%)
Title                                    : The Assent (2019) 1080p AMZN WEB-DL Dual Latino-Inglés [Subt. Esp-Ing]
Language                                 : English
Default                                  : Yes
Forced                                   : No
Color range                              : Limited
Color primaries                          : BT.709
Transfer characteristics                 : BT.709
Matrix coefficients                      : BT.709

Audio #1
ID                                       : 2
Format                                   : AC-3
Format/Info                              : Audio Coding 3
Commercial name                          : Dolby Digital
Codec ID                                 : A_AC3
Duration                                 : 1 h 27 min
Bit rate mode                            : Constant
Bit rate                                 : 256 kb/s
Channel(s)                               : 2 channels
Channel layout                           : L R
Sampling rate                            : 48.0 kHz
Frame rate                               : 31.250 FPS (1536 SPF)
Compression mode                         : Lossy
Stream size                              : 161 MiB (4%)
Title                                    : Latino 2.0
Language                                 : Spanish
Service kind                             : Complete Main
Default                                  : Yes
Forced                                   : No

Audio #2
ID                                       : 3
Format                                   : E-AC-3
Format/Info                              : Enhanced AC-3
Commercial name                          : Dolby Digital Plus
Codec ID                                 : A_EAC3
Duration                                 : 1 h 27 min
Bit rate mode                            : Constant
Bit rate                                 : 640 kb/s
Channel(s)                               : 6 channels
Channel layout                           : L R C LFE Ls Rs
Sampling rate                            : 48.0 kHz
Frame rate                               : 31.250 FPS (1536 SPF)
Compression mode                         : Lossy
Stream size                              : 402 MiB (9%)
Title                                    : Inglés 5.1
Language                                 : English
Service kind                             : Complete Main
Default                                  : No
Forced                                   : No

Text #1
ID                                       : 4
Format                                   : UTF-8
Codec ID                                 : S_TEXT/UTF8
Codec ID/Info                            : UTF-8 Plain Text
Duration                                 : 1 h 20 min
Bit rate                                 : 51 b/s
Count of elements                        : 923
Stream size                              : 30.8 KiB (0%)
Title                                    : Completos SRT
Language                                 : Spanish
Default                                  : No
Forced                                   : No

Text #2
ID                                       : 5
Format                                   : UTF-8
Codec ID                                 : S_TEXT/UTF8
Codec ID/Info                            : UTF-8 Plain Text
Duration                                 : 1 h 17 min
Bit rate                                 : 0 b/s
Count of elements                        : 10
Stream size                              : 244 Bytes (0%)
Title                                    : Forzados SRT
Language                                 : Spanish
Default                                  : No
Forced                                   : Yes

Text #3
ID                                       : 6
Format                                   : UTF-8
Codec ID                                 : S_TEXT/UTF8
Codec ID/Info                            : UTF-8 Plain Text
Duration                                 : 1 h 20 min
Bit rate                                 : 52 b/s
Count of elements                        : 920
Stream size                              : 31.0 KiB (0%)
Title                                    : Completos SRT
Language                                 : English
Default                                  : No
Forced                                   : No

www.club-hd.com




Enlaces de Mega y Google Drive solo disponibles para Miembros VIP

Compra tu Membresía VIP y apoya a Club-HD!

ATENCIÓN! Tenemos TODO el material de Club-HD disponible por Mega y Google Drive, enlaces 100% activos y online hasta la fecha

Llévate tus cuentas Mega PRO II gratis con tu membresía VIP!
Todos los posts vivos con links de Mega y Google Drive.
Todo el material de Club-HD desbloqueado y sin publicidad.

Click Aquí para más información.

Para ver este contenido oculto, debes dar click en una de las siguientes reacciones: Like Like, Love Love, Haha Haha, Wow Wow, Sad Sad, Angry Angry

Para ver este contenido oculto, debes dar click en una de las siguientes reacciones: Like Like, Love Love, Haha Haha, Wow Wow, Sad Sad, Angry Angry

Para ver este contenido oculto, debes dar click en una de las siguientes reacciones: Like Like, Love Love, Haha Haha, Wow Wow, Sad Sad, Angry Angry


Para ver este contenido oculto, debes dar click en una de las siguientes reacciones: Like Like, Love Love, Haha Haha, Wow Wow, Sad Sad, Angry Angry
 
Última edición:

galiel38

Active member
Registrado
28 Sep 2012
Mensajes
682
Puntos de reacción
78
Puntos
28
Edad
32
Muchas gracias por la película.
 

rachi

Active member
Registrado
21 Jul 2018
Mensajes
643
Puntos de reacción
63
Puntos
28
Gracias por el aporte
 

tolnainamur

Well-known member
Miembro VIP
Registrado
25 Sep 2012
Mensajes
2,479
Puntos de reacción
982
Puntos
113
Tengo curiosidad por los subtítulos forzados. ¡10 líneas!
Yo vi la película y no encontré necesidad de ninguno.
Si alguien puede compartirlos lo agradecería, así los pongo con el audio que subí.
 

cripp

Well-known member
Registrado
27 Ago 2012
Mensajes
8,059
Puntos de reacción
463
Puntos
113
Gracias por compartir
 

Usuarios Que Están Viendo Este Tema (Total: 1, Miembros: 0, Invitados: 1)

Arriba