The Bible: In the Beginning (1966) 720p BDRip Dual Latino-Inglés [Subt. Esp] (Drama)

Maestro Revolver

Well-known member
Miembro del Staff
Administrador
Registro
9 Ago 2012
Mensajes
3.569
Reacciones
59.341
Puntos
113

Reputation:









TÍTULO ORIGINAL: The Bible: In the Beginning...
AÑO: 1966
DURACIÓN: 174 min.
PAÍS: USA
DIRECTOR: John Huston
GUIÓN: Vittorio Bonicelli, Christopher Fry, Jonathan Griffin, Ivo Perilli
REPARTO: Michael Parks, Ulla Bergryd, Richard Harris, John Huston, Stephen Boyd, George C. Scott, Ava Gardner, Peter O'Toole, Zoe Sallis, Gabriele Ferzetti, Eleonora Rossi Drago, Franco Nero, Pupella Maggio, Robert Rietty, Peter Heinze, Roger Beaumont, Gianluigi Crescenzi, Maria Grazia Spina
PRODUCTORA: Coproducción USA-Italia; Dino de Laurentiis / 20th Century Fox
GÉNERO: Drama | Religión. Biblia
: http://www.imdb.com/title/tt0060164/

PREMIOS: 1966: Nominada al Oscar: Mejor banda sonora 1965: Premios David di Donatello: Mejor director extranjero, producción y 2 Platos dorados






Cuenta los primeros 22 capítulos del Génesis: la creación del mundo, la expulsión del hombre del Paraíso Terrenal, la expansión del Pueblo de Dios por la faz de la Tierra, el Diluvio Universal o la destrucción de Sodoma y Gomorra.
























La pelicula NO tiene ninguna marca... solo colocamos el nombre de esta web en las capturas






Código:
General
Format                                   : Matroska
Format version                           : Version 2
File size                                : 8.05 GiB
Duration                                 : 2h 54mn
Overall bit rate                         : 6 590 Kbps
Movie name                               : www.club-hd.com
Encoded date                             : UTC 2013-03-30 15:53:50
Writing application                      : mkvmerge v5.7.0 ('The Whirlwind') built on Jul  8 2012 20:08:51
Writing library                          : libebml v1.2.3 + libmatroska v1.3.0

Video
ID                                       : 1
Format                                   : AVC
Format/Info                              : Advanced Video Codec
Format profile                           : High@L4.1
Format settings, CABAC                   : Yes
Format settings, ReFrames                : 5 frames
Codec ID                                 : V_MPEG4/ISO/AVC
Duration                                 : 2h 54mn
Bit rate                                 : 5 693 Kbps
Width                                    : 1 280 pixels
Height                                   : 592 pixels
Display aspect ratio                     : 2.2:1
Frame rate mode                          : Constant
Frame rate                               : 23.976 fps
Color space                              : YUV
Chroma subsampling                       : 4:2:0
Bit depth                                : 8 bits
Scan type                                : Progressive
Bits/(Pixel*Frame)                       : 0.313
Stream size                              : 6.79 GiB (84%)
Title                                    : www.club-hd.com
Writing library                          : x264 core 120 r2164 da19765
Language                                 : English
Default                                  : Yes
Forced                                   : No

Audio #1
ID                                       : 2
Format                                   : AC-3
Format/Info                              : Audio Coding 3
Mode extension                           : CM (complete main)
Format settings, Endianness              : Big
Codec ID                                 : A_AC3
Duration                                 : 2h 54mn
Bit rate mode                            : Constant
Bit rate                                 : 448 Kbps
Channel(s)                               : 6 channels
Channel positions                        : Front: L C R, Side: L R, LFE
Sampling rate                            : 48.0 KHz
Bit depth                                : 16 bits
Compression mode                         : Lossy
Stream size                              : 560 MiB (7%)
Title                                    : www.club-hd.com  >>  Latino
Language                                 : Spanish
Default                                  : Yes
Forced                                   : No

Audio #2
ID                                       : 3
Format                                   : AC-3
Format/Info                              : Audio Coding 3
Mode extension                           : CM (complete main)
Format settings, Endianness              : Big
Codec ID                                 : A_AC3
Duration                                 : 2h 54mn
Bit rate mode                            : Constant
Bit rate                                 : 448 Kbps
Channel(s)                               : 6 channels
Channel positions                        : Front: L C R, Side: L R, LFE
Sampling rate                            : 48.0 KHz
Bit depth                                : 16 bits
Compression mode                         : Lossy
Stream size                              : 560 MiB (7%)
Title                                    : www.club-hd.com  >>  Inglés
Language                                 : English
Default                                  : No
Forced                                   : No

Text #1
ID                                       : 4
Format                                   : UTF-8
Codec ID                                 : S_TEXT/UTF8
Codec ID/Info                            : UTF-8 Plain Text
Title                                    : Forzados
Language                                 : Spanish
Default                                  : Yes
Forced                                   : No

Text #2
ID                                       : 5
Format                                   : UTF-8
Codec ID                                 : S_TEXT/UTF8
Codec ID/Info                            : UTF-8 Plain Text
Language                                 : Spanish
Default                                  : No
Forced                                   : No












Enlaces de Mega y Fireload solo disponibles para Miembros VIP

Compra tu Membresía VIP y apoya a Club-HD!

ATENCIÓN! Tenemos TODO el material de Club-HD disponible por Mega y Fireload, enlaces 100% activos y online hasta la fecha

Llévate tus cuentas Mega PRO II gratis con tu membresía VIP!
Todos los posts vivos con links de Mega y Fireload.
Todo el material de Club-HD desbloqueado y sin publicidad.

Click Aquí para más información.


Enlaces de Mega y Fireload solo disponibles para Miembros VIP

Compra tu Membresía VIP y apoya a Club-HD!

ATENCIÓN! Tenemos TODO el material de Club-HD disponible por Mega y Fireload, enlaces 100% activos y online hasta la fecha

Llévate tus cuentas Mega PRO II gratis con tu membresía VIP!
Todos los posts vivos con links de Mega y Fireload.
Todo el material de Club-HD desbloqueado y sin publicidad.

Click Aquí para más información.




Enlaces de Mega y Fireload solo disponibles para Miembros VIP

Compra tu Membresía VIP y apoya a Club-HD!

ATENCIÓN! Tenemos TODO el material de Club-HD disponible por Mega y Fireload, enlaces 100% activos y online hasta la fecha

Llévate tus cuentas Mega PRO II gratis con tu membresía VIP!
Todos los posts vivos con links de Mega y Fireload.
Todo el material de Club-HD desbloqueado y sin publicidad.

Click Aquí para más información.



Para ver este contenido oculto, debes dar click en una de las siguientes reacciones : Like Like, Love Love, Haha Haha, Wow Wow, Sad Sad, Angry Angry

 
Última edición:

edward1080

Well-known member
Registro
23 Nov 2012
Mensajes
1.013
Reacciones
137
Puntos
63
Edad
34

Reputation:

Wow un clasico de estas fechas! ... recuerdo que la vi hace mucho tiempo, y ahora la vere con la excelente calidad que nos brinda Club HD, gracias Master Revolver!
 

Ezze

Well-known member
Miembro del Staff
Súper Moderador
Registro
28 Ago 2012
Mensajes
1.663
Reacciones
1.790
Puntos
113
Ubicación
En la Torre de Observación

Reputation:

Wow!!! 8 Gb de pura calidad!!! :dplgar: Películas así ya no se hacen... Las de esos años, son mejores :D más que nada por el compromiso, seriedad e interpretación de los actores!!! :aplausos: Muchísimas gracias genio!!! Tb_up3:dplgar::aplausos: Saludos bye
PD: Se publicarán más películas de la Biblia? Saludos de nuevo xD
 

eljumachi

Well-known member
Miembro VIP
Registro
27 Ago 2012
Mensajes
2.174
Reacciones
338
Puntos
83

Reputation:

R21 Usted si sabe leer las mente de los que deseamos ver esta producción de hecho la buscaba precisamente el jueves santo y no la pude encontrar solo en resolución baja, Maestro muchas gracias y con lo del peso, puede pesar 30 G. y así la bajo. saludos
 

Usuarios Que Están Viendo Este Tema (Total: 1, Miembros: 0, Invitados: 1)

Arriba