The Blue Lagoon (1980) 720p Dual Latino-Inglés [Subt. Esp-Ing] (Aventura. Romance)

Maestro Revolver

Well-known member
Miembro del Staff
Administrador
Registro
9 Ago 2012
Mensajes
3.567








TÍTULO ORIGINAL: The Blue Lagoon
AÑO: 1980
DURACIÓN: 101 min.
PAÍS: USA
DIRECTOR: Randal Kleiser
GUIÓN: Douglas Day Stewart (Novela: Henry De Vere Stacpoole)
REPARTO: Brooke Shields, Christopher Atkins, Leo McKern, William Daniels, Elva Josephson, Glenn Kohan
PRODUCTORA: Columbia Pictures
GÉNERO: Aventuras. Romance | Supervivencia. Adolescencia
: http://www.imdb.com/title/tt0080453/






Dos niños, Emmeline y Richard, y el cocinero de un barco, únicos supervivientes de un naufragio, son arrastrados por el mar hasta una isla desierta. Poco después, el cocinero muere y los niños tienen que arreglárselas solos. Con el paso del tiempo, Emmeline (Brooke Shields) y Richard (Christopher Atkins) crecen y sus cuerpos empiezan a experimentar los cambios propios de la adolescencia, lo que despierta en ellos una curiosidad que los lleva inocentemente a practicar los primeros juegos sexuales.
























La pelicula NO tiene ninguna marca... solo colocamos el nombre de esta web en las capturas






Código:
General
Format                                   : Matroska
Format version                           : Version 2
File size                                : 3.19 GiB
Duration                                 : 1h 44mn
Overall bit rate                         : 4 355 Kbps
Movie name                               : www.club-hd.com
Encoded date                             : UTC 2012-12-20 01:01:22
Writing application                      : mkvmerge v5.7.0 ('The Whirlwind') built on Jul  8 2012 20:08:51
Writing library                          : libebml v1.2.3 + libmatroska v1.3.0

Video
ID                                       : 1
Format                                   : AVC
Format/Info                              : Advanced Video Codec
Format profile                           : High@L4.0
Format settings, CABAC                   : Yes
Format settings, ReFrames                : 6 frames
Codec ID                                 : V_MPEG4/ISO/AVC
Duration                                 : 1h 44mn
Bit rate                                 : 3 500 Kbps
Width                                    : 1 280 pixels
Height                                   : 688 pixels
Display aspect ratio                     : 1.85:1
Frame rate mode                          : Constant
Frame rate                               : 23.976 fps
Color space                              : YUV
Chroma subsampling                       : 4:2:0
Bit depth                                : 8 bits
Scan type                                : Progressive
Bits/(Pixel*Frame)                       : 0.166
Stream size                              : 2.52 GiB (79%)
Title                                    : www.club-hd.com
Writing library                          : x264 core 120
Language                                 : English
Default                                  : Yes
Forced                                   : No
Color primaries                          : BT.709
Transfer characteristics                 : BT.709
Matrix coefficients                      : BT.709

Audio #1
ID                                       : 2
Format                                   : AC-3
Format/Info                              : Audio Coding 3
Mode extension                           : CM (complete main)
Format settings, Endianness              : Big
Codec ID                                 : A_AC3
Duration                                 : 1h 44mn
Bit rate mode                            : Constant
Bit rate                                 : 192 Kbps
Channel(s)                               : 2 channels
Channel positions                        : Front: L R
Sampling rate                            : 48.0 KHz
Bit depth                                : 16 bits
Compression mode                         : Lossy
Delay relative to video                  : 24ms
Stream size                              : 144 MiB (4%)
Title                                    : www.club-hd.com  >>  Latino
Language                                 : Spanish
Default                                  : Yes
Forced                                   : No

Audio #2
ID                                       : 3
Format                                   : AC-3
Format/Info                              : Audio Coding 3
Mode extension                           : CM (complete main)
Format settings, Endianness              : Big
Codec ID                                 : A_AC3
Duration                                 : 1h 44mn
Bit rate mode                            : Constant
Bit rate                                 : 640 Kbps
Channel(s)                               : 6 channels
Channel positions                        : Front: L C R, Side: L R, LFE
Sampling rate                            : 48.0 KHz
Bit depth                                : 16 bits
Compression mode                         : Lossy
Stream size                              : 480 MiB (15%)
Title                                    : www.club-hd.com  >>  Inglés
Language                                 : English
Default                                  : No
Forced                                   : No

Text #1
ID                                       : 4
Format                                   : UTF-8
Codec ID                                 : S_TEXT/UTF8
Codec ID/Info                            : UTF-8 Plain Text
Language                                 : Spanish
Default                                  : No
Forced                                   : No

Text #2
ID                                       : 5
Format                                   : UTF-8
Codec ID                                 : S_TEXT/UTF8
Codec ID/Info                            : UTF-8 Plain Text
Language                                 : English
Default                                  : No
Forced                                   : No

Menu
00:00:00.000                             : en:Chapter 1
00:09:54.010                             : en:Chapter 2
00:19:09.106                             : en:Chapter 3
00:28:04.349                             : en:Chapter 4
00:39:53.683                             : en:Chapter 5
00:45:27.600                             : en:Chapter 6
00:51:52.192                             : en:Chapter 7
01:03:37.313                             : en:Chapter 8
01:08:22.056                             : en:Chapter 9
01:19:24.218                             : en:Chapter 10
01:32:03.894                             : en:Chapter 11
01:43:07.014                             : en:Chapter 12











Enlaces de Mega y Google Drive solo disponibles para Miembros VIP

Compra tu Membresía VIP y apoya a Club-HD!

ATENCIÓN! Tenemos TODO el material de Club-HD disponible por Mega y Google Drive, enlaces 100% activos y online hasta la fecha

Llévate tus cuentas Mega PRO III gratis con tu membresía VIP!
Todos los posts vivos con links de Mega y Google Drive.
Todo el material de Club-HD desbloqueado y sin publicidad.

Click Aquí para más información.



Enlaces de Mega y Google Drive solo disponibles para Miembros VIP

Compra tu Membresía VIP y apoya a Club-HD!

ATENCIÓN! Tenemos TODO el material de Club-HD disponible por Mega y Google Drive, enlaces 100% activos y online hasta la fecha

Llévate tus cuentas Mega PRO III gratis con tu membresía VIP!
Todos los posts vivos con links de Mega y Google Drive.
Todo el material de Club-HD desbloqueado y sin publicidad.

Click Aquí para más información.



Para ver este contenido oculto, debes dar click en una de las siguientes reacciones : Like Like, Love Love, Haha Haha, Wow Wow, Sad Sad, Angry Angry
 
Última edición por un moderador:

Nosferatu

Well-known member
Miembro del Staff
Súper Moderador
Miembro VIP
Registro
31 Ago 2012
Mensajes
2.275
Edad
45
Ubicación
Welcome to Hell!!
Este es un Clásico, en lo largo y ancho de la palabra, La Laguna Azul.:D:)

Gracias Mister.:aplausos::aplausos:
 

Yonatan

Admin
Miembro del Staff
Administrador
Miembro VIP
Registro
27 Ago 2012
Mensajes
1.767
Edad
29
Ubicación
Chile, Sexta Región
Nunca he visto esta pelicula, por lo que dicen es muy buena y un clasico y esta se debe ir a mi videoteca

gracias maestro R21!
 

Usuarios Que Están Viendo Este Tema (Total: 1, Miembros: 0, Invitados: 1)

Quién Leyó Este Tema (Total Miembros: 2)

Arriba